<?xml version="1.0" standalone="no"?>
<!DOCTYPE svg PUBLIC "-//W3C//DTD SVG 1.1//EN" "http://www.w3.org/Graphics/SVG/1.1/DTD/svg11.dtd" >
<svg xmlns="http://www.w3.org/2000/svg">
<metadata>Generated by IcoMoon</metadata>
<defs>
<font id="icomoon" horiz-adv-x="1024">
<font-face units-per-em="1024" ascent="960" descent="-64" />
<missing-glyph horiz-adv-x="1024" />
<glyph unicode="&#x20;" horiz-adv-x="512" d="" />
<glyph unicode="&#xe900;" glyph-name="check-light" d="M384 248.667l452 452 60-60-512-512-238 238 60 60z" />
<glyph unicode="&#xe901;" glyph-name="refresh" d="M710.332 405.001c2.334 9.331 9.335 16.333 18.667 16.333 11.669 0 21.001-10.5 17.502-22.165-25.668-105.003-121.335-183.168-234.5-183.168-69.999 0-133 29.167-177.333 75.831l-30.333-29.167c-5.833-6.997-14-9.331-22.167-9.331-17.5 0-31.5 13.999-31.5 31.501v116.668c0 10.496 8.167 18.667 18.667 18.667h116.667c17.5 0 32.666-14.003 32.666-31.501 0-8.166-3.5-16.333-9.333-22.17l-47.833-47.829c37.333-40.836 91.001-65.335 150.5-65.335 94.498 0 175.002 64.166 198.332 151.667zM662.498 597.5c-38.498 40.833-90.999 66.5-150.498 66.5-95.667 0-176.167-65.333-199.5-152.832-2.333-9.335-9.333-15.168-18.667-15.168-11.667 0-21 9.335-17.5 21.001 25.667 106.166 121.333 184.333 235.667 184.333 68.834 0 131.831-30.333 176.166-77l30.332 30.333c5.837 5.833 14.003 9.333 22.17 9.333 17.498 0 32.666-15.167 32.666-32.666v-116.667c0-10.5-9.335-18.667-18.667-18.667h-117.833c-17.502 0-31.501 13.999-31.501 31.501 0 8.166 2.334 16.332 9.331 22.166l47.834 47.834zM736 533.333v85.167l-86.332-85.167h86.332zM288 384v-86.332l85.167 86.332h-85.167z" />
<glyph unicode="&#xe902;" glyph-name="users" horiz-adv-x="1280" d="M639.718 320c114.829 0 207.911 93.128 207.911 208 0 114.876-93.082 208-207.911 208-114.816 0-207.91-93.124-207.91-208 0-114.872 93.094-208 207.91-208zM639.718 672c79.354 0 143.911-64.598 143.911-144s-64.557-144-143.911-144c-79.352 0-143.91 64.598-143.91 144s64.56 144 143.91 144zM739.776 256h-199.55c-156.964 0-284.226-119.386-284.226-266.662 0-29.453 25.454-53.338 56.844-53.338h654.311c31.392 0 56.845 23.885 56.845 53.338 0 147.277-127.245 266.662-284.224 266.662zM320.3 0c6.044 106.816 102.376 192 219.926 192h199.55c117.549 0 213.882-85.184 219.923-192h-639.399zM1024 640c88.371 0 160 71.636 160 160s-71.629 160-160 160c-88.358 0-160-71.636-160-160s71.642-160 160-160zM1024 896c52.934 0 96-43.066 96-96s-43.066-96-96-96c-52.934 0-96 43.066-96 96s43.066 96 96 96zM256 640c88.368 0 160 71.636 160 160s-71.632 160-160 160c-88.36 0-160-71.636-160-160s71.64-160 160-160zM256 896c52.934 0 96-43.066 96-96s-43.066-96-96-96c-52.934 0-96 43.066-96 96s43.066 96 96 96zM1122.157 576h-130.157c-22.31 0-44.154-5-64.941-14.876-15.968-7.592-22.778-26.686-15.181-42.624 7.59-15.938 26.746-22.782 42.624-15.188 12.154 5.75 24.749 8.688 37.498 8.688h130.157c51.75 0 93.843-45.468 93.843-101.344v-26.656c0-17.688 14.31-32 32-32s32 14.312 32 32v26.656c0 91.156-70.81 165.344-157.843 165.344zM325.5 503.312c15.876-7.594 35.062-0.75 42.624 15.188 7.594 15.938 0.782 35.032-15.186 42.624-20.782 9.876-42.626 14.876-64.938 14.876h-130.156c-87.032 0-157.844-74.188-157.844-165.344v-26.656c0-17.688 14.312-32 32-32s32 14.312 32 32v26.656c0 55.876 42.094 101.344 93.844 101.344h130.156c12.75 0 25.344-2.938 37.5-8.688z" />
<glyph unicode="&#xe903;" glyph-name="comment-exclamation" horiz-adv-x="1170" d="M73.439 484.571c0 208.914 214.4 402.286 512 402.286s512.004-193.371 512.004-402.286c0-208.914-214.404-402.286-512.004-402.286-73.143 0-144 13.488-213.714 37.032-22.629 7.541-47.315 4.111-66.743-9.604-35.2-24.459-71.771-45.714-110.629-62.625l14.4-33.375-14.629 33.602c-24-10.518-49.142-19.661-74.742-26.288 1.142 2.055 2.514 4.118 3.657 5.939 32.685 54.177 51.657 112.457 58.742 174.402 2.286 21.029-4.8 40.459-16.914 54.63-56 67.2-91.429 143.771-91.429 228.571zM585.439 960c-323.428 0-585.143-213.029-585.143-475.429 0-106.514 44.8-199.086 108.343-275.427 0-0.234 0.229-0.234 0.229-0.461-5.943-51.653-21.715-99.423-48.686-144.223-14.857-24.686-30.857-47.543-49.6-66.289-10.286-10.511-13.486-26.288-7.771-39.775 5.714-13.48 18.971-22.396 33.829-22.396 65.6 0 131.657 20.341 186.515 44.112 43.886 19.2 84.8 42.745 123.2 69.712 0.457 0.234 1.143 0.461 1.6 0.234 76.343-25.6 155.2-40.916 237.485-40.916 323.427 0 585.147 213.029 585.147 475.429s-261.72 475.429-585.147 475.429zM585.439 777.143c-20.114 0-36.571-16.457-36.571-36.571v-292.571c0-20.114 16.457-36.571 36.571-36.571s36.571 16.457 36.571 36.571v292.571c0 20.114-16.457 36.571-36.571 36.571zM640.296 265.143c0 14.549-5.78 28.502-16.067 38.79s-24.241 16.067-38.79 16.067c-14.549 0-28.502-5.78-38.79-16.067s-16.067-24.241-16.067-38.79c0-14.549 5.78-28.502 16.067-38.788 10.288-10.291 24.241-16.069 38.79-16.069s28.502 5.778 38.79 16.069c10.288 10.285 16.067 24.239 16.067 38.788z" />
<glyph unicode="&#xe904;" glyph-name="solid-arrow-up" horiz-adv-x="878" d="M464.693 949.257c-14.171 14.171-37.486 14.171-51.657 0l-402.285-402.285c-14.171-14.171-14.171-37.486 0-51.657s37.486-14.171 51.657 0l339.886 339.885v-862.629c0-20.114 16.457-36.571 36.571-36.571s36.571 16.457 36.571 36.571v862.629l339.888-339.885c14.168-14.171 37.486-14.171 51.653 0 14.175 14.171 14.175 37.485 0 51.656l-402.284 402.286z" />
<glyph unicode="&#xe905;" glyph-name="solid-arrow-down" horiz-adv-x="878" d="M413.022-53.255c14.171-14.175 37.486-14.175 51.657 0l402.284 402.284c14.175 14.171 14.175 37.485 0 51.656-14.168 14.171-37.486 14.171-51.653 0l-339.888-339.882v862.625c0 20.114-16.457 36.571-36.571 36.571s-36.571-16.457-36.571-36.571v-862.625l-339.886 339.882c-14.171 14.171-37.486 14.171-51.657 0s-14.171-37.485 0-51.656l402.286-402.284z" />
<glyph unicode="&#xe906;" glyph-name="arrow-chevron-up" horiz-adv-x="951" d="M549.043 938.515c-28.572 28.571-74.971 28.571-103.543 0l-365.714-365.715c-28.571-28.571-28.571-74.971 0-103.542s74.971-28.572 103.543 0l240.914 241.142v-701.257c0-40.455 32.685-73.143 73.143-73.143s73.143 32.688 73.143 73.143v701.257l240.911-240.914c28.577-28.571 74.971-28.571 103.548 0 28.57 28.572 28.57 74.971 0 103.543l-365.716 365.714-0.228-0.229z" />
<glyph unicode="&#xe907;" glyph-name="arrow-chevron-down" horiz-adv-x="951" d="M431.029-42.518c28.571-28.57 74.971-28.57 103.542 0l365.715 365.718c28.57 28.571 28.57 74.971 0 103.542s-74.971 28.572-103.541 0l-240.916-241.142v701.257c0 40.457-32.686 73.143-73.143 73.143s-73.143-32.686-73.143-73.143v-701.257l-240.914 240.914c-28.572 28.571-74.971 28.571-103.543 0s-28.572-74.971 0-103.543l365.714-365.716 0.229 0.227z" />
<glyph unicode="&#xe908;" glyph-name="sort-arrow-up" horiz-adv-x="1365" d="M110.633 64h1058.736c98.412 0 147.548 119.1 78.157 188.493l-529.312 547.079c-21.629 21.624-49.893 32.428-78.104 32.428-28.216 0-56.373-10.804-77.78-32.428l-529.853-547.079c-69.392-69.393-20.256-188.493 78.156-188.493z" />
<glyph unicode="&#xe909;" glyph-name="sort-arrow-down" horiz-adv-x="1365" d="M1169.369 832h-1058.736c-98.412 0-147.548-119.091-78.156-188.484l529.853-547.081c21.407-21.623 49.563-32.435 77.78-32.435 28.211 0 56.475 10.812 78.104 32.435l529.312 547.081c69.391 69.393 20.255 188.484-78.157 188.484z" />
<glyph unicode="&#xe90a;" glyph-name="solid-calendar-day" d="M64 32c0-53.001 43-96 96-96h704c53.001 0 96 42.999 96 96v544h-896v-544zM192 416c0 17.5 14.5 32 32 32h192c17.5 0 32-14.5 32-32v-192c0-17.5-14.5-32-32-32h-192c-17.5 0-32 14.5-32 32v192zM864 832h-96v64c0 35.2-28.8 64-64 64s-64-28.8-64-64v-64h-256v64c0 35.2-28.8 64-64 64s-64-28.8-64-64v-64h-96c-53.020 0-96-42.98-96-96v-96h896v96c0 53.020-42.982 96-96 96z" />
<glyph unicode="&#xe90b;" glyph-name="solid-arrow-right-arrow-left" d="M64 608h741.5l-114.749-114.75c-25-25-25-65.499 0-90.499 12.5-12.5 28.873-18.75 45.25-18.75s32.75 6.25 45.25 18.75l224.003 224c24.994 25 24.994 65.499 0 90.499l-224.003 224c-25 25-65.499 25-90.499 0s-25-65.5 0-90.5l114.749-114.75h-741.5c-35.376 0-64-28.624-64-64s28.624-64 64-64zM960 288h-741.5l114.749 114.75c25 25 25 65.499 0 90.499s-65.499 25-90.499 0l-224-224c-25-25-25-65.499 0-90.499l224-224.003c12.5-12.501 28.873-18.748 45.25-18.748s32.75 6.246 45.25 18.748c25 25.003 25 65.502 0 90.505l-114.749 114.748h741.5c35.379 0 64 28.624 64 64s-28.621 64-64 64z" />
<glyph unicode="&#xe90c;" glyph-name="solid-phone-arrow-down-left" d="M986.189 257.505l-216.972 93c-25.562 11.064-55.592 3.626-72.968-17.936l-88.094-107.626c-138.5 68-251.094 180.562-319.061 319l107.656 88.192c21.5 17.562 28.844 47.311 17.968 72.874l-93.062 217.125c-12.188 27.812-42.344 43.062-71.718 36.25l-201.5-46.5c-28.5-6.5-48.438-31.564-48.438-60.876 0-504.565 410.467-915.008 914.97-915.008 29.338 0 54.409 19.942 60.937 48.444l46.498 201.562c6.75 29.187-8.405 59.5-36.215 71.5zM639.999 512.001h192c35.346 0 64.001 28.656 64.001 64s-28.655 64-64.001 64h-37.501l210.754 210.749c24.994 25 24.994 65.5 0 90.5-25.003 25-65.502 25-90.505 0l-210.749-210.75v37.5c0 35.344-28.656 64-64 64s-64-28.656-64-64v-191.999c0-35.344 28.656-64 64-64z" />
<glyph unicode="&#xe90d;" glyph-name="solid-phone-arrow-up-right" d="M986.189 257.505l-216.972 93c-25.562 11.062-55.592 3.624-72.968-17.938l-88.094-107.624c-138.5 68-251.094 180.562-319.061 319l107.656 88.189c21.5 17.564 28.844 47.314 17.968 72.876l-93.062 217.123c-12.188 27.814-42.344 43.064-71.718 36.25l-201.5-46.5c-28.5-6.5-48.438-31.562-48.438-60.874 0-504.565 410.467-915.008 914.97-915.008 29.338 0 54.409 19.942 60.937 48.444l46.498 201.562c6.75 29.188-8.405 59.5-36.215 71.5zM960 960h-192.001c-35.344 0-64-28.656-64-64s28.656-64 64-64h37.5l-210.749-210.749c-25-25-25-65.5 0-90.5s65.499-24.999 90.499 0l210.751 210.75v-37.501c0-35.343 28.655-63.999 64-63.999s64 28.656 64 63.999v192c0 35.344-28.655 64-64 64z" />
<glyph unicode="&#xe90e;" glyph-name="circle-question" d="M553.077 730.256h-121.538c-75.065 0-136.154-61.058-136.154-136.121v-19.776c0-18.142 14.679-32.821 32.821-32.821s32.82 14.679 32.82 32.821v19.776c0 38.878 31.602 70.48 70.513 70.48h121.538c38.911 0 70.513-31.602 70.513-70.48 0-25.61-13.91-49.231-35-60.962l-123.975-61.987c-23.397-13.044-37.949-37.756-37.949-64.552v-37.403c0-18.141 14.679-32.821 32.82-32.821s32.821 14.679 32.821 32.821v37.403c0 2.983 1.602 5.738 2.95 6.507l123.91 61.987c43.204 23.943 70.064 69.551 70.064 119.007 0 75.063-61.089 136.121-136.154 136.121zM459.487 287.179c-27.187 0-49.231-22.043-49.231-49.231s22.044-49.231 49.231-49.231c27.188 0 49.231 22.044 49.231 49.231s-22.043 49.231-49.231 49.231zM492.308 960c-271.896 0-492.308-220.412-492.308-492.308s220.412-492.308 492.308-492.308c271.896 0 492.308 220.412 492.308 492.308s-220.412 492.308-492.308 492.308zM492.308 41.023c-235.263 0-426.667 191.406-426.667 426.669s191.403 426.667 426.667 426.667c235.263 0 426.669-191.403 426.669-426.667s-191.406-426.669-426.669-426.669z" />
<glyph unicode="&#xe90f;" glyph-name="triangle-exclamation-warning-alert" horiz-adv-x="1170" d="M585.15 210.286c-30.293 0-54.853-24.554-54.853-54.857 0-30.296 24.56-54.857 54.853-54.857s54.853 24.561 54.853 54.857c0 30.303-24.56 54.857-54.853 54.857zM585.15 301.714c20.212 0 36.569 16.357 36.569 36.571v329.143c0 20.215-16.357 36.571-36.569 36.571s-36.569-16.356-36.569-36.571v-329.143c0-20.214 16.357-36.571 36.569-36.571zM1152.783 124.928l-456.892 772.501c-23.033 39.106-64.315 62.501-110.491 62.571h-0.215c-46.174 0-87.6-23.358-110.811-62.535l-456.894-772.574c-22.962-38.788-23.319-85.358-0.962-124.57 22.997-40.287 64.743-64.322 111.705-64.322h914.034c46.892 0 88.561 24.071 111.565 64.395 22.316 39.212 21.928 85.753-1.039 124.533zM1090.253 36.608c-9.787-17.181-27.75-27.465-47.996-27.465h-914.034c-20.356 0-38.355 10.247-48.176 27.429-9.321 16.355-9.177 34.962 0.359 51.105l456.891 772.539c9.893 16.679 27.783 26.642 47.925 26.642 0 0 0.037 0 0.071 0 20.034-0.037 37.819-9.964 47.639-26.608l456.927-772.609c9.538-16.106 9.713-34.714 0.395-51.032z" />
<glyph unicode="&#xe910;" glyph-name="call-phone" d="M1022.406 186.003l-46.502-201.562c-6.528-28.506-31.59-48.442-60.934-48.442-504.502 0-914.97 410.443-914.97 915.008 0 29.314 19.938 54.376 48.438 60.876l201.5 46.5c29.373 6.814 59.53-8.436 71.718-36.25l93.062-217.126c10.876-25.564 3.532-55.314-17.968-72.876l-107.656-88.188c67.967-138.44 180.561-251.004 319.061-319.004l88.095 107.626c17.376 21.562 47.405 29 72.966 17.938l216.973-93c27.808-12 42.963-42.31 36.218-71.501z" />
<glyph unicode="&#xe911;" glyph-name="tooltip-info" d="M512 960c-282.771 0-512-229.229-512-512s229.229-512 512-512c282.771 0 512 229.229 512 512s-229.229 512-512 512zM512 4.267c-244.675 0-443.733 199.059-443.733 443.733s199.059 443.733 443.733 443.733c244.675 0 443.733-199.059 443.733-443.733s-199.059-443.733-443.733-443.733zM512 601.6c28.275 0 51.2 22.921 51.2 51.2 0 28.275-22.925 51.2-51.2 51.2s-51.2-22.925-51.2-51.2c0-28.279 22.925-51.2 51.2-51.2zM614.4 243.2h-68.267v238.933c0 18.867-15.266 34.133-34.133 34.133h-68.267c-18.867 0-34.133-15.266-34.133-34.133s15.266-34.133 34.133-34.133h34.133v-204.8h-68.267c-18.85 0-34.133-15.279-34.133-34.133 0-18.85 15.283-34.133 34.133-34.133h204.8c18.85 0 34.133 15.283 34.133 34.133 0 18.854-15.283 34.133-34.133 34.133z" />
<glyph unicode="&#xe912;" glyph-name="play-2" horiz-adv-x="783" d="M93.199 899.062c-40.063 26.195-93.199-2.549-93.199-50.415v-801.296c0-47.863 53.136-76.607 93.199-50.411l612.753 400.645c36.364 23.775 36.364 77.055 0 100.83l-612.753 400.647z" />
<glyph unicode="&#xe913;" glyph-name="envelope-message-inbox" d="M512 351.923c-16.531 0-33.062 5.482-47.155 16.467l-208.845 162.461v-226.851c0-26.509 21.49-48 48-48h416c26.509 0 48 21.491 48 48v226.851l-208.845-162.461c-14.093-10.986-30.624-16.467-47.155-16.467zM272.287 558.694l212.183-165.053c16.192-12.595 38.867-12.595 55.059 0l212.182 165.053c10.278 7.994 16.288 20.285 16.288 33.306 0 26.509-21.491 48-48 48h-416c-26.51 0-48-21.491-48-48 0-13.021 6.010-25.312 16.287-33.306z" />
<glyph unicode="&#xe914;" glyph-name="filter" horiz-adv-x="1144" d="M1031.096 929.882h-960.747c-59.134 0-91.786-67.28-54.483-112.266l397.176-478.949v-200.451c0-16.836 8.203-32.635 22.050-42.285l172.103-120.434c9.216-6.451 19.414-9.379 29.377-9.379 26.75 0 51.832 21.082 51.832 51.664v320.885l397.173 478.949c37.304 44.986 4.65 112.266-54.483 112.266zM635.41 382.612l-15.848-19.111v-312.638l-137.679 96.346v216.292l-15.849 19.111-395.686 478.43 962.241 0.521-397.179-478.951z" />
<glyph unicode="&#xe915;" glyph-name="message-esclamation" horiz-adv-x="945" d="M383.885 152.903v-29.538l132.923 99.692c14.769 11.077 33.231 18.462 53.539 18.462h256.615c14.769 0 29.538 12.923 29.538 29.538v531.692c0 14.769-14.769 29.538-29.538 29.538h-708.923c-16.616 0-29.538-14.769-29.538-29.538v-531.692c0-16.616 12.923-29.538 29.538-29.538h177.231c48 0 88.615-40.615 88.615-88.615zM382.039 10.749l-9.23-5.537-31.385-24.001c-9.231-7.381-20.308-7.381-31.385-3.694-9.231 5.545-14.769 14.769-14.769 27.695v147.692h-177.231c-66.462 0-118.154 51.692-118.154 118.154v531.692c0 64.615 51.692 118.154 118.154 118.154h708.923c64.614 0 118.154-53.539 118.154-118.154v-531.692c0-66.462-53.539-118.154-118.154-118.154h-256.615l-186.462-140.304-1.846-1.851zM472.5 773.211c24 0 44.308-20.307 44.308-44.308v-206.769c0-25.846-20.307-44.308-44.308-44.308-25.846 0-44.308 18.462-44.308 44.308v206.769c0 24 18.462 44.308 44.308 44.308zM531.577 359.673c0-33.231-27.692-59.077-59.077-59.077-33.231 0-59.077 25.846-59.077 59.077 0 31.385 25.846 59.077 59.077 59.077 31.385 0 59.077-27.692 59.077-59.077z" />
<glyph unicode="&#xe916;" glyph-name="file-certificate" d="M617.6 729.6h-193.6c-29.161 0-52.8-23.641-52.8-52.8v-93.445c1.267 0.284 2.701 0.686 4.449 1.178 0.881 0.248 1.841 0.517 2.898 0.804l4.175 1.134c5.704 1.546 11.592 2.335 17.495 2.335 17.853 0 35.313-7.345 47.903-20.147l3.016-3.075c0.76-0.776 1.449-1.49 2.079-2.145l0.003-0.003c1.352-1.4 2.445-2.54 3.448-3.464 1.275-0.417 2.767-0.812 4.6-1.298h0.003c0.847-0.225 1.766-0.468 2.772-0.742l4.234-1.16c23.324-6.339 41.546-24.858 47.473-48l1.221-4.608c0.266-1.016 0.504-1.946 0.722-2.801v0c0.492-1.93 0.888-3.482 1.316-4.8 0.927-1.055 2.076-2.199 3.507-3.628v0c0.676-0.673 1.416-1.411 2.222-2.23l2.652-2.688c17.032-17.034 23.747-42.196 17.51-65.725l-0.975-3.635c-0.305-1.132-0.586-2.158-0.847-3.098-0.579-2.097-1.039-3.763-1.334-5.217 0.271-1.336 0.684-2.857 1.198-4.739v0 0c0.23-0.852 0.484-1.777 0.753-2.793l1.193-4.539c6.28-23.414-0.422-48.563-17.29-65.428l-3.162-3.205c-0.742-0.75-1.426-1.431-2.053-2.056v0 0c-1.375-1.372-2.488-2.481-3.392-3.494-0.425-1.329-0.824-2.893-1.318-4.836-0.22-0.868-0.458-1.81-0.73-2.839l-1.080-4.101c-5.222-20.641-19.82-37.463-39.073-45.619v-100.293h264.013c29.161 0 52.8 23.642 52.8 52.8v334.4h-140.8c-19.441 0-35.2 15.762-35.2 35.2v140.8zM652.8 588.8h140.8l-140.8 140.8v-140.8zM482.906 325.376c-0.356-1.359-0.742-2.829-1.165-4.426-0.722-2.854-1.802-5.542-3.195-8.018-4.178-7.434-11.139-12.951-19.489-15.219-2.184-0.589-4.006-1.078-5.54-1.49-6.241-1.672-7.7-2.063-9.073-2.655-0.417-0.182-0.827-0.381-1.364-0.643-0.404-0.197-0.881-0.428-1.485-0.712v-125.814l-70.387 35.2-70.393-35.2v125.814c-0.684 0.312-1.206 0.561-1.646 0.771-1.103 0.525-1.679 0.799-2.959 1.206-1.4 0.443-3.643 1.047-8.353 2.312l-4.498 1.211c-11.139 3.026-19.799 11.825-22.687 23.237l-1.042 3.93c-0.98 3.707-1.748 6.615-2.473 9.019-2.626 8.707-4.675 10.796-14.167 20.48-0.95 0.968-1.973 2.012-3.080 3.146-2.063 2.063-3.804 4.367-5.214 6.838-4.229 7.411-5.439 16.33-3.171 24.788 0.442 1.695 0.851 3.246 1.229 4.675 2.148 8.136 3.245 12.285 3.257 16.44 0.013 4.332-1.151 8.668-3.528 17.521-0.3 1.119-0.619 2.307-0.958 3.576-2.268 8.558-1.057 17.505 3.171 24.922 1.41 2.476 3.151 4.78 5.214 6.84 1.113 1.132 2.142 2.173 3.096 3.139l0.001 0.003c7.813 7.903 10.583 10.703 12.75 16.223 1.189 3.026 2.197 6.868 3.759 12.823v0.003c0.353 1.349 0.735 2.806 1.155 4.385 2.888 11.277 11.548 20.076 22.687 23.101 1.531 0.425 2.944 0.814 4.255 1.172 8.159 2.243 12.28 3.377 15.852 5.458 3.648 2.125 6.72 5.238 12.931 11.53 0.922 0.932 1.91 1.935 2.98 3.013 2.729 2.775 5.967 4.762 9.367 6.359 0.837 0.397 1.636 0.74 2.501 1.057 3.497 1.303 7.127 2.196 10.88 2.202l0.028 0.005 0.028 0.008c2.755 0 5.532-0.361 8.266-1.106l4.124-1.126c8.284-2.273 12.429-3.41 16.584-3.41 4.157 0 8.33 1.137 16.671 3.412l4.14 1.124c0.138 0.036 0.276 0.046 0.415 0.056v0c0.128 0.010 0.253 0.018 0.381 0.049-0.125-0.028-0.253-0.038-0.381-0.046-0.143-0.010-0.287-0.020-0.43-0.059 2.739 0.745 5.514 1.106 8.269 1.106h0.015c0.018 0 0.038-0.013 0.056-0.013 3.756-0.005 7.383-0.899 10.883-2.202 0.86-0.317 1.661-0.66 2.493-1.052 3.405-1.603 6.643-3.589 9.37-6.364l2.726-2.78c0.932-0.952 1.795-1.836 2.601-2.652 3.067-3.118 5.289-5.302 7.35-6.945 4.593-3.668 8.41-4.713 19.072-7.626 1.316-0.358 2.734-0.745 4.273-1.17 8.351-2.268 15.311-7.788 19.489-15.16 1.393-2.458 2.473-5.123 3.195-7.941 0.443-1.654 0.842-3.174 1.211-4.575v0c0.896-3.402 1.61-6.111 2.284-8.371 2.619-8.794 4.639-10.839 14.446-20.769l2.819-2.86c8.248-8.248 11.412-20.349 8.387-31.762-0.338-1.27-0.658-2.458-0.957-3.576-2.378-8.852-3.54-13.189-3.528-17.521 0.013-4.155 1.108-8.305 3.256-16.44 0.379-1.428 0.788-2.98 1.229-4.675 3.026-11.277-0.138-23.375-8.387-31.626-1.114-1.132-2.143-2.171-3.095-3.136l-0.010-0.010c-9.559-9.672-11.566-11.699-14.159-20.426-0.686-2.301-1.411-5.071-2.33-8.571v-0.005zM357.012 343.826c4.585-0.937 9.331-1.426 14.195-1.426 38.904 0 70.387 31.488 70.387 70.4s-31.483 70.4-70.387 70.4c-4.864 0-9.61-0.489-14.195-1.426-9.17-1.874-17.687-5.53-25.175-10.588-7.488-5.061-13.952-11.52-19.008-19.008-7.585-11.238-12.012-24.786-12.012-39.378s4.426-28.14 12.012-39.378c5.056-7.488 11.52-13.947 19.008-19.008 7.488-5.059 16.005-8.714 25.175-10.588z" />
<glyph unicode="&#xe917;" glyph-name="play-outline" d="M512 928c-265.098 0-480-214.902-480-480 0-265.101 214.902-480 480-480 265.101 0 480 214.899 480 480 0 265.098-214.899 480-480 480zM512 32c-229.382 0-416 186.618-416 416s186.618 416 416 416c229.382 0 416-186.618 416-416s-186.618-416-416-416zM457.032 664.946c-7.664 4.678-16.332 7.030-25.020 7.030-27.618 0-48.012-22.604-48.012-47.984v-351.999c0-25.606 20.614-48 48-48 8.688 0 17.36 2.355 25.032 7.046l287.998 176c14.266 8.718 22.97 24.234 22.97 40.952s-8.704 32.234-22.97 40.954l-287.998 176zM448 300.531v294.929l241.306-147.468-241.306-147.461z" />
<glyph unicode="&#xe918;" glyph-name="user-tie" horiz-adv-x="896" d="M656.454 334.746c-2.989 0.972-6.035 1.434-9.043 1.434-12.339 0-24.068-7.738-29.237-19.572l-70.672-161.882-55.090 165.274h19.582c17.688 0 32 14.312 32 32s-14.312 32-32 32h-128c-17.686 0-32-14.312-32-32s14.314-32 32-32h19.582l-55.088-165.274-70.672 161.882c-5.168 11.83-16.9 19.568-29.24 19.568-3.006 0-6.046-0.458-9.043-1.43-139.926-45.441-240.918-177.178-239.52-332.589 0.332-37.011 32.302-66.157 69.308-66.157h757.347c37.005 0 68.973 29.146 69.306 66.157 1.402 155.411-99.584 287.149-239.52 332.589zM69.322 0c-3.022 0-5.088 2.125-5.312 2.733-1.022 113.805 65.114 215.014 167.31 260.416l114.882-263.149h-276.88zM479.994 0.096h-64l-29.234 66.957 61.234 183.757 61.236-183.757-29.236-66.957zM826.669 0h-276.881l114.884 263.149c102.189-45.395 168.333-146.605 167.328-260.346-0.243-0.678-2.31-2.803-5.331-2.803zM447.994 448c141.5 0 255.999 114.5 255.999 256s-114.499 256-255.999 256c-141.5 0-256-114.5-256-256s114.5-256 256-256zM447.994 896c105.872 0 192-86.128 192-192 0-105.868-86.128-192-192-192s-192 86.132-192 192c0 105.872 86.13 192 192 192z" />
<glyph unicode="&#xe919;" glyph-name="toolbox" d="M811.072 540.242l-56.886 56.886c-7.544 7.544-17.759 11.786-28.444 11.786h-63.8v60.344c0 33.313-27.028 60.342-60.342 60.342h-201.142c-33.316 0-60.344-27.028-60.344-60.342v-60.344h-63.8c-10.685 0-20.899-4.242-28.442-11.786l-56.886-56.886c-7.543-7.542-11.786-17.756-11.786-28.442v-124.142h160.914v40.228c0 11.156 8.957 20.114 20.114 20.114h40.23c11.156 0 20.114-8.957 20.114-20.114v-40.228h160.914v40.228c0 11.156 8.957 20.114 20.114 20.114h40.228c11.159 0 20.114-8.957 20.114-20.114v-40.228h160.916v124.142c0 10.685-4.244 20.9-11.786 28.442zM601.6 608.914h-201.142v60.344h201.142v-60.344zM641.828 287.086c11.159 0 20.114 8.957 20.114 20.114v40.228h160.916v-140.8c0-22.157-18.074-40.228-40.23-40.228h-563.199c-22.157 0-40.229 18.071-40.229 40.228v140.8h160.914v-40.228c0-11.156 8.957-20.114 20.114-20.114h40.23c11.156 0 20.114 8.957 20.114 20.114v40.228h160.914v-40.228c0-11.156 8.957-20.114 20.114-20.114h40.228z" />
<glyph unicode="&#xe91a;" glyph-name="sliders" d="M542.72 579.412c0-20.733-16.809-37.545-37.548-37.545-20.736 0-37.545 16.812-37.545 37.545v112.64c0 20.738 16.809 37.548 37.545 37.548 20.739 0 37.548-16.809 37.548-37.548v-18.67c0-0.018 0.005-0.033 0.010-0.051 0.005-0.015 0.010-0.033 0.010-0.051h225.26c20.652 0 37.548-16.896 37.548-37.548 0-20.649-16.896-37.545-37.548-37.545h-225.26c0-0.018-0.005-0.036-0.010-0.054-0.005-0.015-0.010-0.033-0.010-0.051v-18.67zM430.1 598.188h-187.754c-20.651 0-37.547 16.896-37.547 37.545 0 20.652 16.896 37.548 37.547 37.548h187.754v-75.092zM580.288 410.452h-337.941c-20.651 0-37.547 16.896-37.547 37.548s16.896 37.548 37.547 37.548h337.941v-75.095zM768 485.548h-75.072c0 0.036-0.020 0.067-0.020 0.102v18.67c0 20.739-16.809 37.548-37.548 37.548s-37.548-16.809-37.548-37.548v-112.64c0-20.736 16.809-37.548 37.548-37.548s37.548 16.812 37.548 37.548v18.67c0 0.036 0.020 0.067 0.020 0.102h75.072c20.652 0 37.548 16.896 37.548 37.548s-16.896 37.548-37.548 37.548zM242.347 222.72c-20.651 0-37.547 16.896-37.547 37.548 0 20.649 16.896 37.545 37.547 37.545h75.114v-75.092h-75.114zM768 297.812h-337.9c0 0.038-0.020 0.067-0.020 0.105v18.67c0 20.736-16.809 37.545-37.548 37.545-20.736 0-37.545-16.809-37.545-37.545v-112.64c0-20.736 16.809-37.548 37.545-37.548 20.739 0 37.548 16.812 37.548 37.548v18.67c0 0.018 0.005 0.033 0.010 0.051 0.005 0.015 0.010 0.033 0.010 0.051h337.9c20.652 0 37.548 16.896 37.548 37.548 0 20.649-16.896 37.545-37.548 37.545z" />
<glyph unicode="&#xe91b;" glyph-name="uniE915" d="M512 960c282.77 0 512-229.23 512-512s-229.23-512-512-512c-282.77 0-512 229.23-512 512s229.23 512 512 512z" />
<glyph unicode="&#xe91c;" glyph-name="gauge" d="M153.6 367.542c0 199.887 162.171 362.058 362.058 362.058 199.885 0 362.056-162.171 362.056-362.058 0-66.314-17.915-128.543-49.029-181.97-7.071-12.101-20.585-19.172-34.57-19.172h-556.915c-13.986 0-27.5 7.071-34.571 19.172-31.114 53.427-49.029 115.656-49.029 181.97zM555.886 608.914c0 22.157-18.071 40.228-40.228 40.228-22.159 0-40.23-18.071-40.23-40.228s18.071-40.228 40.23-40.228c22.157 0 40.228 18.071 40.228 40.228zM274.286 287.086c-22.158 0-40.229 18.071-40.229 40.228s18.071 40.228 40.229 40.228c22.157 0 40.228-18.071 40.228-40.228s-18.071-40.228-40.228-40.228zM294.4 528.458c0-22.159 18.071-40.23 40.228-40.23s40.23 18.071 40.23 40.23c0 22.157-18.074 40.228-40.23 40.228s-40.228-18.071-40.228-40.228zM446.356 246.858c-6.915 11.942-11.156 25.457-11.156 40.228 0 44.472 35.986 80.456 80.458 80.456 7.071 0 13.827-1.257 20.426-2.985l136.402 181.972c10.056 13.356 28.913 16.028 42.271 6.129 13.358-10.058 16.028-28.915 6.129-42.273l-136.558-181.97c7.386-12.101 11.786-26.086 11.786-41.329 0-14.771-4.242-28.285-11.156-40.228h-138.601zM716.8 327.314c0-22.157 18.071-40.228 40.228-40.228s40.23 18.071 40.23 40.228c0 22.157-18.074 40.228-40.23 40.228s-40.228-18.071-40.228-40.228z" />
<glyph unicode="&#xe91d;" glyph-name="database" d="M736 630.874v-45.747c0-40.253-100.374-73.126-224-73.126s-224 32.874-224 73.126v45.747c0 40.252 100.374 73.126 224 73.126s224-32.875 224-73.126zM736 528v-102.874c0-40.253-100.374-73.126-224-73.126s-224 32.874-224 73.126v102.874c48.125-33.126 136.25-48.624 224-48.624s175.875 15.498 224 48.624zM736 368v-102.874c0-40.253-100.374-73.126-224-73.126s-224 32.874-224 73.126v102.874c48.125-33.126 136.25-48.624 224-48.624s175.875 15.498 224 48.624z" />
<glyph unicode="&#xe91e;" glyph-name="file-chart" d="M553.6 588.8v140.8h-193.6c-29.161 0-52.8-23.641-52.8-52.8v-457.6c0-29.158 23.639-52.8 52.8-52.8h316.8c29.161 0 52.8 23.642 52.8 52.8v334.4h-140.8c-19.441 0-35.2 15.762-35.2 35.2zM588.8 729.6v-140.8h140.8l-140.8 140.8zM433.974 236.8c7.014 0 14.026 7.012 14.026 14.026v77.548c0 7.014-7.012 14.026-14.026 14.026h-42.348c-7.014 0-14.026-7.012-14.026-14.026v-77.548c0-7.014 7.012-14.026 14.026-14.026h42.348zM553.6 250.826c0-7.014-7.012-14.026-14.026-14.026h-42.348c-7.014 0-14.026 7.012-14.026 14.026v218.348c0 7.014 7.012 14.026 14.026 14.026h42.348c7.014 0 14.026-7.012 14.026-14.026v-218.348zM645.174 412.8h-42.348c-7.014 0-14.026-7.012-14.026-14.026v-147.948c0-7.014 7.012-14.026 14.026-14.026h42.348c7.014 0 14.026 7.012 14.026 14.026v147.948c0 7.014-7.012 14.026-14.026 14.026z" />
<glyph unicode="&#xe91f;" glyph-name="uniE919" d="M401.51 671.627c-21.283 13.916-49.51-1.354-49.51-26.783v-425.689c0-25.427 28.227-40.698 49.51-26.781l325.526 212.842c19.318 12.63 19.318 40.938 0 53.568l-325.526 212.843z" />
<glyph unicode="&#xe920;" glyph-name="checkbox" d="M170.667 960c-94.257 0-170.667-76.41-170.667-170.667v-682.667c0-94.259 76.41-170.667 170.667-170.667h682.667c94.259 0 170.667 76.407 170.667 170.667v682.667c0 94.257-76.407 170.667-170.667 170.667h-682.667zM170.667 106.667v682.667h682.667v-682.667h-682.667zM170.667 960c-94.257 0-170.667-76.41-170.667-170.667v-682.667c0-94.259 76.41-170.667 170.667-170.667h682.667c94.259 0 170.667 76.407 170.667 170.667v682.667c0 94.257-76.407 170.667-170.667 170.667h-682.667zM785.493 694.191l57.941-58.003c6.4-6.397 9.899-14.842 9.899-23.201 0-9.041-3.157-17.742-9.899-24.566l-386.645-386.569c-13.227-13.135-34.56-13.135-47.787 0l-228.523 228.599c-6.741 6.738-9.813 15.439-9.813 24.31 0 8.53 3.413 16.888 9.813 23.286l57.941 57.917c6.571 6.568 15.275 9.894 23.893 9.894s17.237-3.326 23.808-9.809l146.773-146.883 304.896 305.025c6.571 6.568 15.189 9.809 23.893 9.809 8.619 0 17.237-3.241 23.808-9.809z" />
<glyph unicode="&#xe921;" glyph-name="jump-backward-15" d="M347.321 758.906c-10.059 10.059-10.059 26.519 0 36.577l146.309 146.309c10.059 10.059 26.521 10.059 36.577 0 10.061-10.059 10.061-26.518 0-36.577l-105.845-105.845c119.218 29.604 250.439-2.172 343.597-95.33 141.394-141.394 141.394-370.687 0-512.081s-370.687-141.394-512.081 0c-91.329 91.331-123.677 219.233-97.044 336.625 4.343 19.431 28.119 24.918 42.178 10.859 6.858-6.858 9.373-16.689 7.43-26.176-21.261-99.443 6.744-207.46 84.013-284.731 121.162-121.16 317.767-121.16 438.926 0 121.165 121.165 121.165 317.765 0 438.927-81.27 81.27-196.26 108.017-299.818 80.356l98.643-98.644c10.061-10.059 10.061-26.519 0-36.577-10.056-10.059-26.518-10.059-36.577 0l-146.309 146.309zM374.33 348.431c-5.020 0-8.979 1.321-11.875 3.968-2.703 2.831-4.055 6.61-4.055 11.331 0 4.91 1.352 8.591 4.055 11.044 2.896 2.458 6.855 3.686 11.875 3.686h32.44v139.081h17.958l-42.578-25.21c-3.668-2.078-7.144-2.927-10.427-2.55-3.089 0.567-5.793 1.889-8.11 3.966-2.124 2.266-3.572 4.91-4.345 7.931s-0.579 6.043 0.58 9.064c1.352 3.21 3.862 5.854 7.53 7.931l39.971 23.511c3.862 2.266 7.724 4.154 11.586 5.665 3.862 1.699 7.434 2.549 10.717 2.549 4.055 0 7.434-1.133 10.138-3.399 2.703-2.077 4.055-5.571 4.055-10.481v-158.060h29.544c5.021 0 8.882-1.229 11.586-3.686 2.896-2.452 4.345-6.134 4.345-11.044s-1.448-8.689-4.345-11.331c-2.703-2.647-6.565-3.968-11.586-3.968h-99.059zM591.452 345.6c-10.235 0-20.664 1.321-31.283 3.968-10.619 2.642-20.372 6.702-29.256 12.18-3.666 2.263-6.175 4.905-7.526 7.931-1.162 3.21-1.449 6.323-0.87 9.344 0.773 3.21 2.222 5.857 4.342 7.931 2.319 2.268 5.023 3.589 8.11 3.968 3.287 0.379 6.856-0.471 10.716-2.55 7.148-3.963 14.387-6.989 21.724-9.062 7.337-2.079 15.16-3.118 23.465-3.118 8.11 0 15.058 1.418 20.854 4.25 5.791 2.831 10.235 6.799 13.322 11.899 3.087 5.094 4.634 11.044 4.634 17.843 0 10.578-3.282 19.072-9.846 25.492-6.569 6.61-15.544 9.917-26.936 9.917-6.18 0-12.165-1.039-17.961-3.118-5.791-1.889-11.489-5.289-17.091-10.199-1.736-1.51-3.958-3.021-6.661-4.531-2.703-1.321-5.596-1.981-8.689-1.981-4.828 0-8.494 1.229-11.003 3.681-2.514 2.458-3.768 5.857-3.768 10.199v92.627c0 5.098 1.352 8.97 4.055 11.614 2.898 2.833 6.953 4.249 12.165 4.249h95.293c5.212 0 9.17-1.322 11.873-3.966 2.898-2.455 4.347-6.137 4.347-11.047 0-4.721-1.449-8.403-4.347-11.047-2.703-2.644-6.661-3.966-11.873-3.966h-75.31v-63.451h-9.554c5.018 6.61 11.679 11.708 19.983 15.297s17.377 5.382 27.228 5.382c12.938 0 24.136-2.738 33.597-8.215 9.656-5.287 17.091-12.747 22.303-22.376 5.407-9.441 8.11-20.49 8.11-33.142 0-13.030-2.995-24.55-8.98-34.56-5.985-9.82-14.577-17.562-25.779-23.229-11.003-5.473-24.136-8.212-39.388-8.212z" />
<glyph unicode="&#xe922;" glyph-name="jump-forward-15" d="M676.572 758.857c10.056 10.057 10.056 26.514 0 36.571l-146.289 146.286c-10.056 10.057-26.512 10.057-36.569 0s-10.057-26.514 0-36.571l105.827-105.828c-119.199 29.6-250.399-2.171-343.542-95.314-141.371-141.371-141.371-370.627 0-512s370.627-141.373 512 0c91.315 91.315 123.658 219.197 97.029 336.571-4.342 19.428-28.114 24.914-42.173 10.857-6.856-6.857-9.37-16.686-7.429-26.171 21.258-99.428-6.743-207.429-83.999-284.685-121.144-121.144-317.713-121.144-438.856 0s-121.143 317.713 0 438.856c81.257 81.257 196.228 108 299.771 80.343l-98.629-98.629c-10.057-10.057-10.057-26.514 0-36.571s26.513-10.057 36.569 0l146.289 146.286zM374.33 348.431c-5.020 0-8.979 1.321-11.875 3.968-2.703 2.831-4.055 6.61-4.055 11.331 0 4.91 1.352 8.591 4.055 11.044 2.896 2.458 6.855 3.686 11.875 3.686h32.44v139.081h17.958l-42.578-25.21c-3.668-2.078-7.144-2.927-10.427-2.55-3.089 0.567-5.793 1.889-8.11 3.966-2.124 2.266-3.572 4.91-4.345 7.931s-0.579 6.043 0.58 9.064c1.352 3.21 3.862 5.854 7.53 7.931l39.971 23.511c3.862 2.266 7.724 4.154 11.586 5.665 3.862 1.699 7.434 2.549 10.717 2.549 4.055 0 7.434-1.133 10.138-3.399 2.703-2.077 4.055-5.571 4.055-10.481v-158.060h29.544c5.021 0 8.882-1.229 11.586-3.686 2.896-2.452 4.345-6.134 4.345-11.044s-1.448-8.689-4.345-11.331c-2.703-2.647-6.565-3.968-11.586-3.968h-99.059zM591.452 345.6c-10.235 0-20.664 1.321-31.283 3.968-10.619 2.642-20.372 6.702-29.256 12.18-3.666 2.263-6.175 4.905-7.526 7.931-1.162 3.21-1.449 6.323-0.87 9.344 0.773 3.21 2.222 5.857 4.342 7.931 2.319 2.268 5.023 3.589 8.11 3.968 3.287 0.379 6.856-0.471 10.716-2.55 7.148-3.963 14.387-6.989 21.724-9.062 7.337-2.079 15.16-3.118 23.465-3.118 8.11 0 15.058 1.418 20.854 4.25 5.791 2.831 10.235 6.799 13.322 11.899 3.087 5.094 4.634 11.044 4.634 17.843 0 10.578-3.282 19.072-9.846 25.492-6.569 6.61-15.544 9.917-26.936 9.917-6.18 0-12.165-1.039-17.961-3.118-5.791-1.889-11.489-5.289-17.091-10.199-1.736-1.51-3.958-3.021-6.661-4.531-2.703-1.321-5.596-1.981-8.689-1.981-4.828 0-8.494 1.229-11.003 3.681-2.514 2.458-3.768 5.857-3.768 10.199v92.627c0 5.098 1.352 8.97 4.055 11.614 2.898 2.833 6.953 4.249 12.165 4.249h95.293c5.212 0 9.17-1.322 11.873-3.966 2.898-2.455 4.347-6.137 4.347-11.047 0-4.721-1.449-8.403-4.347-11.047-2.703-2.644-6.661-3.966-11.873-3.966h-75.31v-63.451h-9.554c5.018 6.61 11.679 11.708 19.983 15.297s17.377 5.382 27.228 5.382c12.938 0 24.136-2.738 33.597-8.215 9.656-5.287 17.091-12.747 22.303-22.376 5.407-9.441 8.11-20.49 8.11-33.142 0-13.030-2.995-24.55-8.98-34.56-5.985-9.82-14.577-17.562-25.779-23.229-11.003-5.473-24.136-8.212-39.388-8.212z" />
<glyph unicode="&#xe923;" glyph-name="star" horiz-adv-x="1117" d="M1039.607 617.020l-292.72 42.59-130.863 264.781c-11.748 23.668-34.541 35.614-57.479 35.61-22.793 0-45.717-11.796-57.479-35.61l-130.866-264.781-292.718-42.59c-52.532-7.594-73.572-72.18-35.5-109.176l211.82-205.978-50.090-290.97c-7.126-41.584 26.032-74.896 63.214-74.896 9.864 0 20.012 2.341 29.766 7.498l261.854 137.393 261.851-137.393c9.733-5.106 19.852-7.424 29.691-7.424 37.213 0 70.423 33.21 63.293 74.822l-50.092 290.97 211.824 205.978c38.070 36.996 17.031 101.582-35.505 109.176zM797.347 307.633l52.787-307.461-276.717 145.194c-9.314 4.887-20.429 4.883-29.743-0.005l-276.892-145.32 55.812 324.198-235.898 229.444 309.359 45.014c10.41 1.514 19.412 8.050 24.076 17.478l138.415 279.824 138.412-279.82c4.664-9.432 13.666-15.966 24.078-17.48l309.457-44.974-223.916-217.738c-7.564-7.354-11.017-17.957-9.23-28.355z" />
<glyph unicode="&#xe924;" glyph-name="gears" d="M472.479 515.023l32.384-18.691c4.792-2.77 7.196-8.596 5.453-13.847-8.095-24.376-20.979-46.546-37.64-65.334-2.24-2.522-5.422-3.817-8.65-3.817-2.079 0-4.175 0.535-6.052 1.618l-32.727 18.898c-13.445-11.622-28.925-20.69-46.049-26.68v-37.617c0-5.517-3.789-10.473-9.193-11.607-12.198-2.555-24.804-4.006-37.763-4.006-12.961 0-25.567 1.452-37.768 4.006-5.404 1.134-9.193 6.090-9.193 11.607v37.619c-17.121 5.99-32.603 15.055-46.046 26.678l-32.727-18.898c-1.878-1.083-3.974-1.618-6.051-1.618-3.228 0-6.413 1.295-8.651 3.817-16.66 18.788-29.544 40.957-37.638 65.334-1.743 5.251 0.659 11.077 5.452 13.847l32.383 18.693c-1.621 8.614-2.674 17.436-2.674 26.522 0 9.229 1.043 18.202 2.715 26.944l-32.424 18.721c-4.793 2.77-7.195 8.591-5.452 13.842 8.094 24.381 20.978 46.546 37.638 65.339 2.237 2.519 5.421 3.809 8.651 3.809 2.078 0 4.176-0.532 6.051-1.615l33.045-19.082c13.375 11.494 28.738 20.47 45.728 26.414v38.066c0 5.52 3.789 10.474 9.193 11.608 12.201 2.556 24.806 4.006 37.768 4.006 12.959 0 25.564-1.45 37.763-4.006 5.404-1.134 9.193-6.088 9.193-11.608v-38.064c16.991-5.944 32.356-14.922 45.732-26.417l33.044 19.082c1.882 1.083 3.973 1.615 6.052 1.615 3.228 0 6.41-1.29 8.65-3.809 16.66-18.793 29.545-40.957 37.64-65.339 1.743-5.251-0.66-11.072-5.453-13.842l-32.425-18.721c1.674-8.742 2.716-17.713 2.716-26.944 0-9.085-1.052-17.91-2.675-26.524zM278.648 541.548c0-29.599 23.995-53.594 53.594-53.594s53.591 23.995 53.591 53.594c0 29.599-23.992 53.591-53.591 53.591s-53.594-23.992-53.594-53.591zM855.227 382.81c2.555-12.201 4.004-24.806 4.004-37.768 0-12.959-1.449-25.564-4.004-37.765-1.134-5.404-6.090-9.193-11.61-9.193h-38.062c-5.944-16.991-14.922-32.356-26.417-45.729l19.080-33.047c1.083-1.879 1.618-3.973 1.618-6.049 0-3.228-1.29-6.413-3.812-8.653-18.79-16.66-40.957-29.542-65.336-37.637-5.251-1.746-11.075 0.658-13.842 5.453l-18.724 32.422c-8.742-1.672-17.713-2.714-26.944-2.714-9.083 0-17.91 1.052-26.524 2.673l-18.691-32.381c-2.767-4.795-8.594-7.199-13.847-5.453-24.374 8.095-46.546 20.977-65.331 37.637-2.524 2.24-3.817 5.425-3.817 8.653 0 2.076 0.535 4.175 1.618 6.049l18.898 32.727c-11.622 13.448-20.69 28.928-26.68 46.049h-37.617c-5.517 0-10.473 3.789-11.607 9.193-2.557 12.201-4.006 24.806-4.006 37.765 0 12.961 1.449 25.567 4.006 37.768 1.134 5.404 6.090 9.19 11.607 9.19h37.619c5.99 17.124 15.055 32.604 26.678 46.047l-18.898 32.727c-1.083 1.879-1.618 3.976-1.618 6.052 0 3.228 1.293 6.413 3.817 8.65 18.785 16.66 40.957 29.545 65.331 37.64 5.253 1.743 11.080-0.658 13.847-5.453l18.693-32.381c8.614 1.62 17.439 2.673 26.522 2.673 9.229 0 18.202-1.042 26.944-2.714l18.724 32.422c2.767 4.795 8.591 7.196 13.842 5.453 24.379-8.095 46.546-20.979 65.336-37.64 2.522-2.237 3.812-5.42 3.812-8.65 0-2.076-0.535-4.175-1.618-6.052l-19.080-33.044c11.494-13.373 20.47-28.739 26.414-45.729h38.065c5.519 0 10.476-3.786 11.61-9.19zM617.587 345.042c0-29.599 23.995-53.594 53.591-53.594 29.599 0 53.594 23.995 53.594 53.594s-23.995 53.591-53.594 53.591c-29.596 0-53.591-23.992-53.591-53.591z" />
<glyph unicode="&#xe925;" glyph-name="speaker-icon" d="M512 448c141.39 0 256 114.618 256 256s-114.61 256-256 256c-141.376 0-256-114.618-256-256s114.624-256 256-256zM613.328 352h-202.656c-191.454 0-346.672-155.204-346.672-346.667 0-38.289 31.046-69.333 69.328-69.333h757.347c38.281 0 69.325 31.044 69.325 69.333 0 191.462-155.204 346.667-346.672 346.667z" />
<glyph unicode="&#xe926;" glyph-name="download" d="M490.75 200.096c6.062-5.408 13.626-8.096 21.25-8.096s15.188 2.688 21.25 8.096l287.998 255.998c13.19 11.718 14.438 31.968 2.688 45.156-11.75 13.25-32.122 14.468-45.184 2.656l-234.752-208.655v632.749c0 17.688-14.312 32-32 32s-32-14.312-32-32v-632.749l-234.75 208.655c-13.126 11.812-33.438 10.594-45.188-2.656-11.75-13.188-10.5-33.438 2.688-45.156l288-255.998zM896 320h-96c-17.67 0-32-14.323-32-32 0-17.67 14.33-32 32-32h96c35.347 0 64-28.653 64-64v-128c0-35.341-28.653-64-64-64h-768c-35.348 0-64 28.659-64 64v128c0 35.347 28.652 64 64 64h96c17.672 0 32 14.33 32 32 0 17.677-14.328 32-32 32h-96c-70.692 0-128-57.306-128-128v-128c0-70.694 57.308-128 128-128h768c70.694 0 128 57.306 128 128v128c0 70.694-57.306 128-128 128zM880 128c0 26.502-21.498 48-48 48s-48-21.498-48-48c0-26.502 21.498-48 48-48s48 21.498 48 48z" />
<glyph unicode="&#xe927;" glyph-name="chart-bar" horiz-adv-x="1117" d="M104.727 884.364v-768c0-30.545 21.819-52.364 52.364-52.364h907.636c28.365 0 52.364-24 52.364-52.364 0-30.543-23.999-52.364-52.364-52.364h-907.636c-87.273 0-157.091 69.818-157.091 157.091v768c0 28.364 21.818 52.364 52.364 52.364 28.364 0 52.364-24 52.364-52.364zM1031.997 637.818l-298.906-296.727c-19.637-21.818-52.364-21.818-72 0l-172.363 172.363-172.363-172.363c-21.819-21.818-54.546-21.818-74.182 0-21.818 19.637-21.818 52.364 0 72l209.455 209.455c8.727 10.909 21.819 15.272 37.091 15.272 13.090 0 26.182-4.363 37.091-15.272l172.363-172.363 259.64 259.636c19.633 21.819 52.364 21.819 74.175 0 19.642-19.637 19.642-52.364 0-72z" />
<glyph unicode="&#xe928;" glyph-name="grid" d="M832 960h128c35.348 0 64-28.652 64-64v-128c0-35.348-28.652-64-64-64h-128c-35.348 0-64 28.652-64 64v128c0 35.348 28.652 64 64 64zM960 736c17.644 0 32 14.356 32 32v128c0 17.644-14.356 32-32 32h-128c-17.644 0-32-14.356-32-32v-128c0-17.644 14.356-32 32-32h128zM192 576c35.348 0 64-28.652 64-64v-128c0-35.348-28.652-64-64-64h-128c-35.348 0-64 28.652-64 64v128c0 35.348 28.652 64 64 64h128zM192 352c17.644 0 32 14.356 32 32v128c0 17.644-14.356 32-32 32h-128c-17.644 0-32-14.356-32-32v-128c0-17.644 14.356-32 32-32h128zM576 960c35.348 0 64-28.652 64-64v-128c0-35.348-28.652-64-64-64h-128c-35.348 0-64 28.652-64 64v128c0 35.348 28.652 64 64 64h128zM576 736c17.644 0 32 14.356 32 32v128c0 17.644-14.356 32-32 32h-128c-17.644 0-32-14.356-32-32v-128c0-17.644 14.356-32 32-32h128zM192 192c35.348 0 64-28.652 64-64v-128c0-35.348-28.652-64-64-64h-128c-35.348 0-64 28.652-64 64v128c0 35.348 28.652 64 64 64h128zM192-32c17.644 0 32 14.356 32 32v128c0 17.644-14.356 32-32 32h-128c-17.644 0-32-14.356-32-32v-128c0-17.644 14.356-32 32-32h128zM960 192c35.348 0 64-28.652 64-64v-128c0-35.348-28.652-64-64-64h-128c-35.348 0-64 28.652-64 64v128c0 35.348 28.652 64 64 64h128zM960-32c17.644 0 32 14.356 32 32v128c0 17.644-14.356 32-32 32h-128c-17.644 0-32-14.356-32-32v-128c0-17.644 14.356-32 32-32h128zM576 576c35.348 0 64-28.652 64-64v-128c0-35.348-28.652-64-64-64h-128c-35.348 0-64 28.652-64 64v128c0 35.348 28.652 64 64 64h128zM576 352c17.644 0 32 14.356 32 32v128c0 17.644-14.356 32-32 32h-128c-17.644 0-32-14.356-32-32v-128c0-17.644 14.356-32 32-32h128zM576 192c35.348 0 64-28.652 64-64v-128c0-35.348-28.652-64-64-64h-128c-35.348 0-64 28.652-64 64v128c0 35.348 28.652 64 64 64h128zM576-32c17.644 0 32 14.356 32 32v128c0 17.644-14.356 32-32 32h-128c-17.644 0-32-14.356-32-32v-128c0-17.644 14.356-32 32-32h128zM960 576c35.348 0 64-28.652 64-64v-128c0-35.348-28.652-64-64-64h-128c-35.348 0-64 28.652-64 64v128c0 35.348 28.652 64 64 64h128zM960 352c17.644 0 32 14.356 32 32v128c0 17.644-14.356 32-32 32h-128c-17.644 0-32-14.356-32-32v-128c0-17.644 14.356-32 32-32h128zM192 960c35.348 0 64-28.652 64-64v-128c0-35.348-28.652-64-64-64h-128c-35.348 0-64 28.652-64 64v128c0 35.348 28.652 64 64 64h128zM192 736c17.644 0 32 14.356 32 32v128c0 17.644-14.356 32-32 32h-128c-17.644 0-32-14.356-32-32v-128c0-17.644 14.356-32 32-32h128z" />
<glyph unicode="&#xe929;" glyph-name="circle-check" d="M692.666 608.666l-248.932-248.932-112.401 112.399c-13.334 13.333-34.934 13.333-48.265 0s-13.333-34.934 0-48.265l136.534-136.533c6.664-6.669 15.398-10.003 24.132-10.003s17.468 3.334 24.132 10.003l273.069 273.067c13.331 13.333 13.331 34.933 0 48.264-13.338 13.331-34.931 13.333-48.269 0zM512 960c-282.771 0-512-229.229-512-512s229.229-512 512-512c282.771 0 512 229.229 512 512s-229.229 512-512 512zM512 4.269c-244.674 0-443.733 199.059-443.733 443.731 0 244.674 199.059 443.733 443.733 443.733 244.672 0 443.731-199.059 443.731-443.733 0-244.672-199.059-443.731-443.731-443.731z" />
<glyph unicode="&#xe92a;" glyph-name="circle-x" d="M512 960c-282.771 0-512-229.229-512-512s229.229-512 512-512c282.771 0 512 229.229 512 512s-229.229 512-512 512zM512 4.269c-244.674 0-443.733 199.059-443.733 443.731 0 244.674 199.059 443.733 443.733 443.733 244.672 0 443.731-199.059 443.731-443.733 0-244.672-199.059-443.731-443.731-443.731zM624.401 608.666c13.331 13.333 34.933 13.333 48.264 0s13.331-34.931 0-48.264l-112.399-112.401 112.399-112.401c13.331-13.331 13.331-34.933 0-48.264-13.338-13.344-34.94-13.325-48.264 0l-112.401 112.399-112.401-112.399c-13.34-13.344-34.94-13.325-48.264 0-13.333 13.331-13.333 34.931 0 48.264l112.399 112.401-112.399 112.401c-13.333 13.331-13.331 34.931 0 48.264s34.931 13.333 48.264 0l112.401-112.399 112.401 112.399z" />
<glyph unicode="&#xe92b;" glyph-name="gear" d="M512 192c-58.742 0-79.654 11.325-79.654 35.939v39.565c-15.901 6.378-30.752 14.534-44.394 24.406l-35.946-19.779c-4.842-2.704-10.454-4.016-16.096-4.016-38.476 0-79.91 92.874-79.91 108.643 0 10.848 6.085 21.341 16.468 27.066l35.814 19.722c-1.147 8.346-1.703 16.438-1.703 24.47s0.556 16.125 1.703 24.47l-35.831 19.75c-10.37 5.702-16.452 16.189-16.452 27.050 0 12.586 39.807 108.662 79.859 108.662 5.68 0 11.344-1.338 16.262-4.109l35.83-19.722c13.642 9.875 28.493 18.032 44.394 24.41v39.564c0 31.573 37.36 35.908 79.645 35.908 41.622 0 79.664-4.083 79.664-35.908v-39.564c15.898-6.378 30.752-14.534 44.394-24.41l35.946 19.782c4.842 2.704 10.461 4.013 16.102 4.013 38.224 0 79.904-92.55 79.904-108.64 0-10.848-6.086-21.341-16.467-27.069l-35.814-19.718c1.146-8.346 1.702-16.438 1.702-24.47s-0.557-16.125-1.702-24.47l35.83-19.75c10.368-5.702 16.451-16.189 16.451-27.053 0-12.589-39.805-108.659-79.872-108.659-5.68 0-11.344 1.334-16.25 4.109l-35.83 19.718c-13.642-9.872-28.496-18.029-44.394-24.406v-39.565c0-24.557-20.8-35.939-79.654-35.939zM391.424 330.79c37.638-30.822 54.848-34.362 74.461-41.005v-61.846c14.787-2.342 30.202-3.725 45.866-3.725s31.578 1.382 47.363 4.57l-0.998 61.002c16.842 5.706 36.87 10.221 74.461 41.005l56.186-30.973c19.686 22.064 35.389 47.974 45.478 76.57l-55.485 30.563c2.877 14.995 5.094 25.434 5.094 39.072 0 10.95-1.43 23.968-5.094 43.059l56.022 30.845c-10.298 27.75-26.118 53.971-47.261 76.723l-54.941-31.408c-37.638 30.822-54.848 34.362-74.461 41.002v61.849c-14.787 2.343-30.202 3.726-45.866 3.726s-31.578-1.383-47.363-4.57l0.998-61.005c-16.842-5.702-36.87-10.218-74.461-41.002l-56.186 30.97c-19.898-22.314-35.717-48.534-45.788-77.472l55.795-29.658c-2.88-14.995-5.094-25.437-5.094-39.072 0-10.954 1.43-23.968 5.094-43.059l-56.024-30.845c10.301-27.754 26.12-53.971 47.263-76.723l54.941 31.408zM512 352.010c-55.482 0-100.614 43.066-100.614 96.006s45.133 96.006 100.614 96.006c55.482 0 100.614-43.066 100.614-96.006s-45.133-96.006-100.614-96.006zM512 512.019c-36.992 0-67.075-28.72-67.075-64.003s30.083-64.003 67.075-64.003c36.992 0 67.075 28.72 67.075 64.003s-30.083 64.003-67.075 64.003z" />
<glyph unicode="&#xe92c;" glyph-name="arrow-up" d="M672 352h-288l144 192 144-192z" />
<glyph unicode="&#xe92d;" glyph-name="arrow-down" d="M384 512h288l-144-192-144 192z" />
<glyph unicode="&#xe92e;" glyph-name="star-fill" horiz-adv-x="1117" d="M615.945 923.744l130.686-264.423 292.324-42.532c52.461-7.582 73.472-72.082 35.454-109.026l-211.535-205.697 50.022-290.574c9.007-52.545-46.397-91.676-92.854-67.309l-261.497 137.207-261.497-137.207c-46.459-24.557-101.86 14.764-92.856 67.309l50.024 290.574-211.537 205.697c-38.016 36.944-17.007 101.444 35.454 109.026l292.325 42.532 130.687 264.423c23.571 47.711 91.415 47.118 114.8 0z" />
<glyph unicode="&#xe92f;" glyph-name="chevron-left" d="M602.858 667.751c3.44-3.141 5.158-7.437 5.158-11.75 0-3.891-1.408-7.781-4.25-10.859l-181.968-197.142 181.968-197.139c6-6.502 5.626-16.64-0.909-22.611-6.499-6-16.592-5.594-22.592 0.893l-192 208c-5.686 6.157-5.686 15.562 0 21.718l192 207.999c6 6.485 16.093 6.891 22.592 0.891z" />
<glyph unicode="&#xe930;" glyph-name="chevron-right" d="M389.165 228.25c-3.437 3.142-5.155 7.437-5.155 11.75 0 3.891 1.405 7.782 4.25 10.861l181.968 197.139-181.968 197.142c-6 6.5-5.626 16.64 0.906 22.609 6.499 6 16.595 5.594 22.595-0.891l192-207.999c5.686-6.157 5.686-15.562 0-21.718l-192-208c-6-6.486-16.096-6.893-22.595-0.893z" />
<glyph unicode="&#xe931;" glyph-name="chevron-down" d="M276.262 554.848c3.141 3.437 7.437 5.155 11.75 5.155 3.891 0 7.781-1.405 10.859-4.25l197.142-181.968 197.139 181.968c6.502 6 16.64 5.626 22.611-0.906 6-6.499 5.594-16.595-0.893-22.595l-208-192c-6.157-5.686-15.562-5.686-21.718 0l-207.999 192c-6.485 6-6.891 16.096-0.891 22.595z" />
<glyph unicode="&#xe932;" glyph-name="chevron-up" d="M715.763 341.155c-3.142-3.437-7.437-5.155-11.75-5.155-3.891 0-7.782 1.408-10.861 4.25l-197.139 181.968-197.141-181.968c-6.5-6-16.64-5.626-22.609 0.906-6 6.502-5.594 16.595 0.891 22.595l207.999 192c6.157 5.686 15.565 5.686 21.718 0l208-192c6.486-6 6.893-16.093 0.893-22.595z" />
<glyph unicode="&#xe933;" glyph-name="chart-column" d="M752 256h-416c-26.469 0-48 21.53-48 48v352c0 8.844-7.156 16-16 16s-16-7.156-16-16v-352c0-44.125 35.875-80 80-80h416c8.845 0 16 7.155 16 16s-7.155 16-16 16zM416 336c8.845 0 16 7.155 16 16v96c0 8.845-7.155 16-16 16s-16-7.155-16-16v-96c0-8.845 7.155-16 16-16zM512 336c8.845 0 16 7.155 16 16v224c0 8.845-7.155 16-16 16s-16-7.155-16-16v-224c0-8.845 7.155-16 16-16zM608 336c8.845 0 16 7.155 16 16v160c0 8.845-7.155 16-16 16s-16-7.155-16-16v-160c0-8.845 7.155-16 16-16zM704 336c8.845 0 16 7.155 16 16v256c0 8.845-7.155 16-16 16s-16-7.155-16-16v-256c0-8.845 7.155-16 16-16z" />
<glyph unicode="&#xe934;" glyph-name="search-loupe-lens" d="M763.312 219.312l-141.462 141.462c31.19 36.378 50.15 83.549 50.15 135.226 0 114.874-93.126 208-208 208s-208-93.126-208-208c0-114.874 93.126-208 208-208 51.677 0 98.848 18.96 135.226 50.147l141.462-141.459c3.123-3.126 7.219-4.688 11.312-4.688s8.189 1.562 11.312 4.688c6.25 6.25 6.25 16.374 0 22.624zM464 320c-97.046 0-176 78.954-176 176s78.954 176 176 176c97.046 0 176-78.954 176-176s-78.954-176-176-176z" />
<glyph unicode="&#xe935;" glyph-name="facebook-messenger" d="M512.566 704c-144.547 0-256.566-105.648-256.566-248.342 0-74.637 30.668-139.136 80.589-183.69 8.618-7.754 6.845-12.243 8.31-60.112 0.115-3.354 1.050-6.627 2.72-9.536s4.029-5.363 6.867-7.152c2.838-1.789 6.070-2.858 9.414-3.11 3.347-0.253 6.701 0.317 9.776 1.661 54.618 24.054 55.318 25.952 64.579 23.434 158.234-43.552 329.744 57.715 329.744 238.506 0 142.694-110.874 248.342-255.434 248.342zM666.621 512.89l-75.354-119.306c-2.845-4.486-6.586-8.336-10.989-11.309s-9.373-5.005-14.598-5.965c-5.226-0.963-10.592-0.835-15.763 0.371-5.174 1.21-10.042 3.475-14.298 6.653l-59.955 44.874c-2.678 2.010-5.939 3.098-9.29 3.098s-6.611-1.088-9.29-3.098l-80.899-61.36c-10.797-8.186-24.938 4.749-17.661 16.176l75.354 119.302c2.845 4.49 6.586 8.339 10.989 11.312 4.403 2.976 9.373 5.008 14.598 5.968 5.222 0.963 10.592 0.835 15.763-0.374 5.174-1.21 10.042-3.475 14.298-6.653l59.933-44.864c2.682-2.010 5.942-3.098 9.293-3.098s6.608 1.088 9.29 3.098l80.938 61.299c10.778 8.237 24.922-4.688 17.642-16.125z" />
<glyph unicode="&#xe936;" glyph-name="hashtag" d="M722.285 603.427h-41.766l8.278 46.9c4.941 28-16.598 53.673-45.030 53.673h-0.006c-22.186 0-41.171-15.929-45.027-37.78l-11.085-62.793h-89.984l8.275 46.9c4.941 28-16.598 53.673-45.030 53.673h-0.003c-22.189 0-41.174-15.929-45.030-37.78l-11.085-62.793h-66.506c-25.246 0-45.713-20.467-45.713-45.712 0-25.248 20.467-45.715 45.713-45.715h50.374l-22.589-128h-64.356c-25.247 0-45.714-20.467-45.714-45.715 0-25.245 20.468-45.712 45.714-45.712h48.222l-8.275-46.899c-4.944-28 16.598-53.674 45.030-53.674 22.189 0 41.174 15.93 45.030 37.779l11.082 62.794h89.987l-8.275-46.899c-4.941-28 16.598-53.674 45.034-53.674v0c22.189 0 41.174 15.93 45.030 37.779l11.082 62.794h60.054c25.245 0 45.712 20.467 45.712 45.712 0 25.248-20.467 45.715-45.712 45.715h-43.92l22.589 128h57.901c25.248 0 45.715 20.467 45.715 45.715 0 25.245-20.467 45.712-45.715 45.712zM548.928 384h-89.99l22.589 128h89.99l-22.589-128z" />
<glyph unicode="&#xe937;" glyph-name="map-location-dot-pin" d="M512 672c-58.906 0-106.666-47.76-106.666-106.666 0-43.005 14.982-55.021 95.712-172.042 5.293-7.648 16.614-7.648 21.907 0 80.733 117.021 95.715 129.037 95.715 172.042 0 58.906-47.76 106.666-106.669 106.666zM512 515.555c-23.533 0-42.666 19.133-42.666 42.666 0 23.536 19.133 42.669 42.666 42.669 23.536 0 42.666-19.133 42.666-42.669 0-23.533-19.13-42.666-42.666-42.666zM264.941 469.693c-5.4-2.157-8.941-7.386-8.941-13.203v-225.363c0-10.064 10.164-16.944 19.505-13.206l122.716 55.859v219.232c-6.669 11.13-11.418 20.733-14.755 30.115l-118.524-53.434zM546.339 377.098c-7.798-11.261-20.634-17.987-34.339-17.987-13.702 0-26.541 6.726-34.368 18.029-14.339 20.784-26.595 38.246-37.059 53.146-5.088 7.251-9.546 13.629-13.907 19.882v-176.387l170.669-56.89v233.277c-4.358-6.253-8.819-12.63-13.907-19.882-10.461-14.899-22.72-32.362-37.088-53.187zM748.496 528.746l-122.717-55.856v-256l133.28 60.083c5.402 2.16 8.941 7.389 8.941 13.203v225.366c0 10.061-10.163 16.941-19.504 13.203z" />
<glyph unicode="&#xe938;" glyph-name="microphone" d="M528 352c53.030 0 96 42.97 96 96v160c0 53.031-42.97 96-96 96s-96-42.969-96-96v-160c0-53.030 42.97-96 96-96zM680 512c-13.254 0-24-10.746-24-24v-40c0-73.328-61.965-132.426-136.253-127.738-66.083 4.17-119.747 66.595-119.747 132.806v34.931c0 13.254-10.746 24-24 24s-24-10.746-24-24v-32.157c0-89.654 63.968-169.562 152-181.686v-34.157h-40c-18.192 0-32.842-15.184-31.962-33.571 0.394-8.214 7.741-14.429 15.962-14.429h160c8.221 0 15.571 6.214 15.962 14.429 0.88 18.387-13.766 33.571-31.962 33.571h-40v33.782c85.718 11.747 152 85.312 152 174.218v40c0 13.254-10.746 24-24 24z" />
<glyph unicode="&#xe939;" glyph-name="microphone-slash" d="M576 240h-40v33.779c20.602 2.826 39.981 9.392 57.69 18.714l-43.264 33.91c-14.662-4.65-30.278-7.178-46.678-6.144-66.083 4.17-119.747 66.595-119.747 132.806v3.776l-48 37.619v-38.621c0-89.654 63.968-169.558 152-181.686v-34.154h-40c-17.674 0-32-14.326-32-32 0-8.835 7.165-16 16-16h160c8.838 0 16 7.165 16 16 0 17.674-14.326 32-32 32zM822.81 234.899l-159.36 124.902c15.363 25.936 24.55 55.891 24.55 88.195v39.997c0 13.258-10.746 24-24 24s-24-10.742-24-24v-39.997c0-21.12-5.584-40.749-14.797-58.221l-25.69 20.138c5.235 11.683 8.486 24.419 8.486 38.083v155.984c0 52.571-40.522 98.405-93.072 99.967-54.368 1.617-98.928-41.951-98.928-95.955v-54.246l-185.186 145.144c-4.407 3.437-9.625 5.109-14.782 5.109-7.125 0-14.187-3.156-18.906-9.187-8.187-10.438-6.375-25.531 4.063-33.703l591.998-463.993c10.499-8.202 25.562-6.326 33.686 4.077 8.186 10.438 6.374 25.533-4.064 33.706z" />
<glyph unicode="&#xe93a;" glyph-name="light-message-text" d="M896 960h-768c-70.5 0-128-57.5-128-128v-576.006c0-70.496 57.5-128 128-128h192v-168c0-19.674 22.050-30.95 38.25-19.245l249.75 187.245h288c70.502 0 128 57.504 128 128v576.006c0 70.5-57.498 128-128 128zM960 255.994c0-35.2-28.8-64-64-64h-288.152c-13.856 0-27.34-4.493-38.422-12.806l-185.426-139.194v120c0 17.677-14.328 32-32 32h-224c-35.2 0-64 28.8-64 64v576.006c0 35.2 28.8 64 64 64h768c35.2 0 64-28.8 64-64v-576.006zM640 704h-256c-17.688 0-32-14.312-32-32s14.312-32 32-32h96v-224c0-17.688 14.312-32 32-32s32 14.312 32 32v224h96c17.69 0 32 14.312 32 32s-14.31 32-32 32z" />
<glyph unicode="&#xe93b;" glyph-name="signal-stream" d="M419.331 536.358c-8.88 7.29-22.365 6.454-30.138-1.821-44.736-47.709-44.736-125.366 0-173.075 4.211-4.506 10.122-6.797 16.058-6.797 4.989 0 10.022 1.642 14.080 4.976 8.858 7.29 9.731 19.92 1.949 28.227-31.085 33.152-31.085 87.11 0 120.262 7.782 8.307 6.909 20.938-1.949 28.227zM711.834 598.029c-9.862 11.485-27.763 13.309-39.987 4.115-12.262-9.219-14.221-26.016-4.403-37.501 28.57-33.386 43.667-73.722 43.667-116.643 0-42.915-15.098-83.254-43.667-116.64-9.818-11.485-7.859-28.282 4.403-37.501 5.251-3.933 11.53-5.859 17.779-5.859 8.333 0 16.582 3.411 22.208 9.974 36.221 42.342 56.166 95.626 56.166 150.026 0 54.403-19.946 107.686-56.166 150.029zM312.889 448c0 42.922 15.098 83.258 43.668 116.643 9.818 11.485 7.859 28.282-4.403 37.501-12.224 9.139-30.125 7.344-39.988-4.115-36.221-42.342-56.166-95.626-56.166-150.029 0-54.4 19.945-107.683 56.167-150.026 5.625-6.563 13.875-9.974 22.207-9.974 6.25 0 12.528 1.926 17.779 5.859 12.262 9.219 14.221 26.016 4.403 37.501-28.57 33.386-43.668 73.725-43.668 116.64zM634.806 534.538c-7.757 8.304-21.242 9.11-30.138 1.821-8.858-7.29-9.731-19.92-1.949-28.227 31.085-33.152 31.085-87.11 0-120.262-7.782-8.307-6.909-20.938 1.949-28.227 4.058-3.334 9.075-4.976 14.080-4.976 5.936 0 11.846 2.291 16.058 6.797 44.736 47.709 44.736 125.366 0 173.075zM512 494.666c-27.443 0-49.779-20.938-49.779-46.666s22.336-46.666 49.779-46.666c27.443 0 49.779 20.938 49.779 46.666s-22.336 46.666-49.779 46.666z" />
<glyph unicode="&#xe93c;" glyph-name="solid-sparkless" d="M648.749 753.75l119.251-49.75 49.747-119.25c2.752-5.25 8.25-8.75 14.253-8.75s11.501 3.5 14.253 8.75l49.747 119.25 119.251 49.75c5.248 2.75 8.749 8.25 8.749 14.25s-3.501 11.5-8.749 14.25l-119.251 49.75-49.747 119.25c-2.752 5.25-8.25 8.75-14.253 8.75s-11.501-3.5-14.253-8.75l-49.747-119.25-119.251-49.75c-5.248-2.75-8.749-8.25-8.749-14.25s3.501-11.5 8.749-14.25zM1015.251 142.253l-119.251 49.747-49.747 119.251c-2.752 5.248-8.25 8.749-14.253 8.749s-11.501-3.501-14.253-8.749l-49.747-119.251-119.251-49.747c-5.248-2.752-8.749-8.25-8.749-14.253s3.501-11.501 8.749-14.253l119.251-49.747 49.747-119.251c2.752-5.248 8.25-8.749 14.253-8.749s11.501 3.501 14.253 8.749l49.747 119.251 119.251 49.747c5.248 2.752 8.749 8.25 8.749 14.253s-3.501 11.501-8.749 14.253zM768 448.75c0 12-6.752 23.25-17.747 28.75l-225.003 112.75-112.75 225.5c-10.75 21.75-46.25 21.75-57 0l-112.75-225.5-225-112.75c-11-5.5-17.75-16.75-17.75-28.75 0-12.25 6.75-23.25 17.75-28.75l225-112.749 112.75-225.504c5.25-10.746 16.498-17.747 28.5-17.747 11.998 0 23.25 7.002 28.5 17.747l112.75 225.504 225.003 112.749c10.995 5.5 17.747 16.5 17.747 28.75z" />
<glyph unicode="&#xe93d;" glyph-name="face-frown" d="M415.955 488c13.338 0 24.045 10.688 24.045 24s-10.707 24-24.045 24c-13.248 0-23.955-10.688-23.955-24s10.707-24 23.955-24zM575.955 488c13.338 0 24.045 10.688 24.045 24s-10.707 24-24.045 24c-13.248 0-23.955-10.688-23.955-24s10.707-24 23.955-24zM496 400c-44.442 0-86.218-19.626-114.797-53.75-5.69-6.874-4.845-16.998 1.939-22.499 6.899-5.75 16.95-4.877 22.522 2 22.403 26.749 55.341 42.125 90.214 42.125 34.877 0 67.811-15.376 90.214-42.125 5.328-6.499 15.379-8 22.525-2 6.781 5.626 7.629 15.75 1.936 22.499-28.336 34.125-70.112 53.75-114.554 53.75zM496 704c-132.55 0-240-107.45-240-240s107.45-240 240-240c132.55 0 240 107.45 240 240s-107.45 240-240 240zM496 256c-114.691 0-208 93.309-208 208s93.309 208 208 208c114.691 0 208-93.309 208-208s-93.309-208-208-208z" />
<glyph unicode="&#xe93e;" glyph-name="users-solid" horiz-adv-x="1170" d="M584.885 330.971c104.986 0 190.092 85.146 190.092 190.171 0 105.029-85.107 190.171-190.092 190.171-104.975 0-190.090-85.142-190.090-190.171 0-105.026 85.115-190.171 190.090-190.171zM676.365 272.457h-182.444c-143.51 0-259.864-109.151-259.864-243.807 0-26.931 23.272-48.764 51.972-48.764h598.224c28.701 0 51.975 21.833 51.975 48.764 0 134.656-116.341 243.807-259.863 243.807zM936.229 623.543c80.794 0 146.286 65.496 146.286 146.286s-65.492 146.286-146.286 146.286c-80.786 0-146.286-65.496-146.286-146.286s65.499-146.286 146.286-146.286zM336.285 521.143c0 9.964 1.798 19.436 2.944 29.096-19.937 9.364-41.88 14.789-65.090 14.789h-113.079c-88.945 0-161.061-76.407-161.061-170.664 0-18.851 14.422-34.136 32.21-34.136h364.718c-37.27 43.5-60.643 99.264-60.643 160.914zM234.057 623.543c80.794 0 146.286 65.496 146.286 146.286s-65.492 146.286-146.286 146.286c-80.786 0-146.286-65.496-146.286-146.286s65.499-146.286 146.286-146.286zM1009.225 565.029h-113.079c-23.406 0-45.502-5.554-65.573-15.067 1.126-9.573 2.918-18.951 2.918-28.818 0-61.651-23.376-117.415-60.65-160.914h365.232c17.788 0 32.212 15.285 32.212 34.136 0 94.257-72.112 170.664-161.061 170.664z" />
<glyph unicode="&#xe93f;" glyph-name="face-meh" d="M592.026 384h-192.051c-8.72 0-15.987-7.251-15.987-16s7.267-16 15.987-16h192.051c8.72 0 15.987 7.251 15.987 16s-7.267 16-15.987 16zM415.955 488c13.338 0 24.045 10.688 24.045 24s-10.707 24-24.045 24c-13.248 0-23.955-10.688-23.955-24s10.707-24 23.955-24zM575.955 488c13.338 0 24.045 10.688 24.045 24s-10.707 24-24.045 24c-13.248 0-23.955-10.688-23.955-24s10.707-24 23.955-24zM496 704c-132.55 0-240-107.45-240-240s107.45-240 240-240c132.55 0 240 107.45 240 240s-107.45 240-240 240zM496 256c-114.691 0-208 93.309-208 208s93.309 208 208 208c114.691 0 208-93.309 208-208s-93.309-208-208-208z" />
<glyph unicode="&#xe940;" glyph-name="face-smiling" d="M586.214 394.25c-22.403-26.874-55.341-42.25-90.214-42.25s-67.811 15.376-90.214 42.25c-5.693 6.749-15.744 7.626-22.525 2-6.781-5.75-7.629-15.75-1.936-22.499 28.336-34.125 70.234-53.75 114.675-53.75s86.339 19.626 114.797 53.75c5.693 6.874 4.845 16.998-1.939 22.499-6.899 5.626-16.95 4.749-22.643-2zM575.955 488c13.338 0 24.045 10.688 24.045 24s-10.707 24-24.045 24c-13.248 0-23.955-10.688-23.955-24s10.707-24 23.955-24zM496 704c-132.55 0-240-107.45-240-240s107.45-240 240-240c132.55 0 240 107.45 240 240s-107.45 240-240 240zM496 256c-114.691 0-208 93.309-208 208s93.309 208 208 208c114.691 0 208-93.309 208-208s-93.309-208-208-208zM415.955 488c13.338 0 24.045 10.688 24.045 24s-10.707 24-24.045 24c-13.248 0-23.955-10.688-23.955-24s10.707-24 23.955-24z" />
<glyph unicode="&#xe941;" glyph-name="seal-exclamation" d="M444.2 924.2c37.4 37.4 98.2 37.4 135.8 0l92-92.2h128c52.998 0 96-43 96-96v-128l91.2-91.2c37.402-37.4 37.402-98.2 0-135.8l-91.2-91.201v-129.798c0-52.998-43.002-96-96-96h-129.798l-90.202-90.202c-37.4-37.402-98.2-37.402-135.8 0l-90.401 90.202h-129.8c-53 0-96 43.002-96 96v129.798l-91.2 91.201c-37.4 37.4-37.4 98.2 0 135.8l91.2 91.2v128c0 53 43 96 96 96h128l92.2 92.2zM512 704c-26.6 0-48-21.4-48-48v-224c0-26.6 21.4-48 48-48s48 21.4 48 48v224c0 26.6-21.4 48-48 48zM576 256c0 16.973-6.743 33.254-18.745 45.254s-28.281 18.746-45.255 18.746c-16.974 0-33.252-6.746-45.255-18.746s-18.745-28.282-18.745-45.254c0-16.973 6.743-33.254 18.745-45.254s28.281-18.746 45.255-18.746c16.974 0 33.252 6.746 45.255 18.746s18.745 28.282 18.745 45.254z" />
<glyph unicode="&#xe942;" glyph-name="triangle-alert-exclamation-warning" d="M762.275 286.998l-213.325 364.002c-16.333 28-57.552 28-73.997 0l-213.213-364.002c-16.332-27.888 4.111-62.998 37-62.998h426.536c32.774 0 53.328 34.998 36.998 62.998zM488 536c0 13.251 10.752 24 24 24 13.251 0 24-10.749 24-24v-128c0-13.251-10.749-24-24-24-13.248 0-24 10.749-24 24v128zM512 288c-17.363 0-31.437 14.077-31.437 31.44 0 17.36 14.074 31.437 31.437 31.437 17.366 0 31.437-14.077 31.437-31.437 0-17.363-14.074-31.44-31.437-31.44z" />
<glyph unicode="&#xe943;" glyph-name="badge-check" d="M512 960c73.6 0 137.6-41.4 169.798-102.2 65.798 20.2 140.205 4.2 192.198-47.8 52.006-52 68.006-126.6 47.802-192.2 60.8-32.2 102.202-96.2 102.202-169.8s-41.402-137.6-102.202-169.798c20.205-65.798 4.205-140.205-47.802-192.198-51.994-52.006-126.598-68.006-192.198-47.802-32.198-60.8-96.198-102.202-169.798-102.202s-137.6 41.402-169.8 102.202c-65.8-20.205-140.2-4.205-192.2 47.802-52 51.994-68 126.598-47.8 192.198-60.8 32.198-102.2 96.198-102.2 169.798s41.4 137.6 102.2 169.8c-20.2 65.8-4.2 140.2 47.8 192.2s126.6 68 192.2 47.8c32.2 60.8 96.2 102.2 169.8 102.2zM737.997 542c18.803 18.8 18.803 49.2 0 67.8-18.797 18.6-49.197 18.8-67.795 0l-222.001-222-94 94c-18.8 18.8-49.201 18.8-67.8 0s-18.8-49.2 0-67.8l128-127.997c18.8-18.803 49.2-18.803 67.8 0l255.796 255.997z" />
<glyph unicode="&#xe944;" glyph-name="volume" d="M644.294 500.768c-9.677 7.747-23.914 6.384-31.766-3.162-7.91-9.52-6.499-23.565 3.178-31.37 10.646-8.589 16.765-21.066 16.765-34.24s-6.118-25.651-16.765-34.24c-9.677-7.805-11.088-21.85-3.178-31.366 4.442-5.398 10.941-8.186 17.472-8.186 5.030 0 10.118 1.654 14.294 5.021 21.206 17.12 33.354 42.163 33.354 68.771s-12.147 51.651-33.354 68.771zM701.293 569.424c-9.616 7.747-23.853 6.413-31.792-3.104-7.914-9.52-6.502-23.565 3.146-31.37 31.882-25.795 50.176-63.315 50.176-102.954s-18.294-77.158-50.176-102.954c-9.645-7.805-11.059-21.85-3.146-31.366 4.47-5.37 10.941-8.157 17.469-8.157 5.059 0 10.118 1.654 14.323 5.050 42.384 34.272 66.707 84.384 66.707 137.427s-24.323 103.158-66.707 137.427zM539.395 637.382c-10.822 4.817-23.485 2.873-32.352-4.902l-126.96-111.341h-78.907c-24.95 0-45.176-19.958-45.176-44.573v-89.139c0-24.614 20.226-44.573 45.176-44.573h78.907l126.96-111.338c5.632-4.934 12.781-7.517 20.016-7.517 4.176 0 8.381 0.842 12.336 2.611 10.826 4.787 17.782 15.408 17.782 27.104v356.566c0 11.693-6.957 22.314-17.782 27.101z" />
<glyph unicode="&#xe945;" glyph-name="adress-book" d="M496 416h-64c-44.182 0-80-35.818-80-80 0-8.835 7.165-16 16-16 8.838 0 16 7.165 16 16 0 26.509 21.491 48 48 48h64c26.509 0 48-21.491 48-48 0-8.835 7.165-16 16-16 8.838 0 16 7.165 16 16 0 44.182-35.818 80-80 80zM720 512h-16v-96h16c8.838 0 16 7.165 16 16v64c0 8.835-7.162 16-16 16zM464 448c35.347 0 64 28.653 64 64s-28.653 64-64 64c-35.347 0-64-28.653-64-64s28.653-64 64-64zM464 544c17.645 0 32-14.355 32-32s-14.355-32-32-32c-17.645 0-32 14.355-32 32s14.355 32 32 32zM720 384h-16v-96h16c8.838 0 16 7.165 16 16v64c0 8.835-7.162 16-16 16zM720 640h-16v-96h16c8.838 0 16 7.165 16 16v64c0 8.835-7.162 16-16 16zM608 704h-288c-35.346 0-64-28.654-64-64v-384c0-35.347 28.654-64 64-64h288c35.347 0 64 28.653 64 64v384c0 35.346-28.653 64-64 64zM640 256c0-17.645-14.355-32-32-32h-288c-17.645 0-32 14.355-32 32v384c0 17.645 14.355 32 32 32h288c17.645 0 32-14.355 32-32v-384z" />
<glyph unicode="&#xe946;" glyph-name="archive-floppydisk-save" d="M656.070 677.214c-17.283 17.268-40.214 26.786-64.643 26.786h-244c-50.427 0-91.427-41.018-91.427-91.427v-329.146c0-50.41 41-91.427 91.427-91.427h329.146c50.429 0 91.427 41.018 91.427 91.427v243.984c0 24.429-9.501 47.392-26.787 64.659l-85.142 85.143zM365.715 667.428h219.427v-109.713h-219.427v109.713zM731.427 283.427c0-30.25-24.605-54.854-54.854-54.854h-329.146c-30.249 0-54.856 24.605-54.856 54.854v329.146c0 23.808 15.332 43.914 36.571 51.488v-106.345c0-20.198 16.374-36.573 36.573-36.573h219.427c20.198 0 36.573 16.374 36.573 36.573v100.548c3.043-2.008 5.904-4.309 8.499-6.906l85.142-85.142c10.358-10.374 16.070-24.144 16.070-38.803v-243.984zM512 466.285c-50.429 0-91.427-41.018-91.427-91.427s40.998-91.43 91.427-91.43c50.429 0 91.427 41.021 91.427 91.43s-40.998 91.427-91.427 91.427zM512 320c-30.25 0-54.858 24.608-54.858 54.858s24.608 54.858 54.858 54.858c30.25 0 54.858-24.608 54.858-54.858s-24.608-54.858-54.858-54.858z" />
<glyph unicode="&#xe947;" glyph-name="arrow-left" d="M720.003 448.010c0-8.845-7.155-16-16-16h-363.83l135.677-149.251c5.936-6.528 5.453-16.656-1.078-22.592-3.062-2.781-6.922-4.157-10.768-4.157-4.342 0-8.688 1.75-11.843 5.251l-160 176c-5.547 6.093-5.547 15.405 0 21.498l160 176c5.968 6.564 16.093 7.002 22.611 1.094 6.531-5.936 7.014-16.061 1.078-22.592l-135.677-149.251h363.83c8.845 0 16-7.155 16-16z" />
<glyph unicode="&#xe948;" glyph-name="phone" d="M740.627 373.376c-0.013 0-0.029 0-0.045 0.032l-101.75 43.638c-18.502 7.69-40.205 2.378-52.752-13.075l-33.142-40.47c-52.749 28.72-96.608 72.579-125.312 125.312l40.515 33.19c15.674 12.918 20.829 34.154 12.845 52.842l-43.61 101.782c-8.72 20.094-30.608 31.11-51.814 26.219l-94.389-21.906c-20.703-4.719-35.172-22.844-35.172-44.063 0-245.315 199.565-444.877 444.877-444.877 21.235 0 39.408 14.438 44.173 35.126l21.798 94.467c4.89 21.312-6.141 43.094-26.221 51.782zM713.862 234.314c-1.376-5.971-6.845-10.314-12.986-10.314-227.658 0-412.877 185.219-412.877 412.877 0 6.188 4.235 11.484 10.344 12.875l94.408 21.906c0.998 0.235 2 0.344 2.982 0.344 5.235 0 10.112-3.094 12.25-8.031l43.581-101.705c2.358-5.514 0.826-11.763-3.75-15.546l-50.502-41.376c-5.75-4.717-7.498-12.765-4.218-19.437 33.376-67.811 89.11-123.533 156.938-156.906 6.643-3.315 14.736-1.533 19.44 4.218l41.389 50.499c3.706 4.563 10.157 6.064 15.501 3.843l101.581-43.562c5.904-2.563 9.155-8.97 7.715-15.219l-21.795-94.467z" />
<glyph unicode="&#xe949;" glyph-name="list" horiz-adv-x="987" d="M129.219 775.314c29.79 0 56.076-26.286 56.076-56.076 0-31.543-26.286-56.076-56.076-56.076-31.543 0-56.076 24.533-56.076 56.076 0 29.79 24.533 56.076 56.076 56.076zM325.486 747.276h560.761c14.016 0 28.038-14.019 28.038-28.038 0-15.771-14.021-28.038-28.038-28.038h-560.761c-15.771 0-28.038 12.268-28.038 28.038 0 14.019 12.268 28.038 28.038 28.038zM325.486 466.894h560.761c14.016 0 28.038-14.016 28.038-28.038 0-15.771-14.021-28.038-28.038-28.038h-560.761c-15.771 0-28.038 12.265-28.038 28.038 0 14.021 12.268 28.038 28.038 28.038zM325.486 186.514h560.761c14.016 0 28.038-14.016 28.038-28.038 0-15.771-14.021-28.038-28.038-28.038h-560.761c-15.771 0-28.038 12.265-28.038 28.038 0 14.021 12.268 28.038 28.038 28.038zM185.294 438.857c0-31.545-26.286-56.076-56.076-56.076-31.543 0-56.076 24.533-56.076 56.076 0 29.788 24.533 56.076 56.076 56.076 29.79 0 56.076-26.289 56.076-56.076zM129.219 214.551c29.79 0 56.076-26.289 56.076-56.076 0-31.545-26.286-56.076-56.076-56.076-31.543 0-56.076 24.533-56.076 56.076 0 29.788 24.533 56.076 56.076 56.076z" />
<glyph unicode="&#xe94a;" glyph-name="arrow-right" d="M288 448c0 8.845 7.156 16 16 16h363.83l-135.674 149.251c-5.939 6.531-5.453 16.656 1.078 22.592 3.062 2.781 6.922 4.157 10.765 4.157 4.342 0 8.688-1.75 11.843-5.251l160-176c5.549-6.093 5.549-15.405 0-21.498l-160-176c-5.968-6.563-16.093-7.002-22.608-1.094-6.531 5.936-7.018 16.061-1.078 22.592l135.674 149.251h-363.83c-8.844 0-16 7.155-16 16z" />
<glyph unicode="&#xe94b;" glyph-name="plus" d="M288 416h192v-192c0-17.664 14.336-32 32-32s32 14.336 32 32v192h192c17.664 0 32 14.336 32 32s-14.336 32-32 32h-192v192c0 17.664-14.336 32-32 32s-32-14.336-32-32v-192h-192c-17.664 0-32-14.336-32-32s14.336-32 32-32z" />
<glyph unicode="&#xe94c;" glyph-name="trash" horiz-adv-x="805" d="M292.571 530.286v-329.143c0-10.286-8-18.286-18.286-18.286h-36.571c-10.286 0-18.286 8-18.286 18.286v329.143c0 10.286 8 18.286 18.286 18.286h36.571c10.286 0 18.286-8 18.286-18.286zM438.857 530.286v-329.143c0-10.286-8-18.286-18.286-18.286h-36.571c-10.286 0-18.286 8-18.286 18.286v329.143c0 10.286 8 18.286 18.286 18.286h36.571c10.286 0 18.286-8 18.286-18.286zM585.143 530.286v-329.143c0-10.286-8-18.286-18.286-18.286h-36.571c-10.286 0-18.286 8-18.286 18.286v329.143c0 10.286 8 18.286 18.286 18.286h36.571c10.286 0 18.286-8 18.286-18.286zM658.286 116.571v541.714h-512v-541.714c0-27.429 15.429-43.429 18.286-43.429h475.429c2.857 0 18.286 16 18.286 43.429zM274.286 731.428h256l-27.429 66.857c-1.714 2.286-6.857 5.714-9.714 6.286h-181.143c-3.429-0.571-8-4-9.714-6.286zM804.571 713.143v-36.571c0-10.286-8-18.286-18.286-18.286h-54.857v-541.714c0-62.857-41.143-116.571-91.429-116.571h-475.429c-50.286 0-91.429 51.429-91.429 114.286v544h-54.857c-10.286 0-18.286 8-18.286 18.286v36.571c0 10.286 8 18.286 18.286 18.286h176.571l40 95.429c11.429 28 45.714 50.857 76 50.857h182.857c30.286 0 64.571-22.857 76-50.857l40-95.429h176.571c10.286 0 18.286-8 18.286-18.286z" />
<glyph unicode="&#xe94d;" glyph-name="chat-message-lines" d="M704 704h-384c-35.25 0-64-28.75-64-64v-288.003c0-35.248 28.75-64 64-64h96v-84c0-9.837 11.024-15.475 19.126-9.622l124.874 93.622h144c35.251 0 64 28.752 64 64v288.003c0 35.25-28.749 64-64 64zM736 351.997c0-17.6-14.4-32-32-32h-144.077c-6.928 0-13.67-2.246-19.21-6.403l-92.714-69.597v60c0 8.838-7.165 16-16 16h-112c-17.6 0-32 14.4-32 32v288.003c0 17.6 14.4 32 32 32h384c17.6 0 32-14.4 32-32v-288.003zM528 464h-128c-8.8 0-16-7.2-16-16 0-8.797 7.2-16 16-16h128c8.8 0 16 7.203 16 16 0 8.8-7.2 16-16 16zM624 560h-224c-8.8 0-16-7.2-16-16 0-8.797 7.2-16 16-16h224c8.8 0 16 7.203 16 16 0 8.8-7.2 16-16 16z" />
<glyph unicode="&#xe94e;" glyph-name="circle" d="M512 669.867c122.336 0 221.866-99.531 221.866-221.867s-99.53-221.866-221.866-221.866c-122.336 0-221.867 99.53-221.867 221.866s99.531 221.867 221.867 221.867zM512 704c-141.386 0-256-114.618-256-256s114.614-256 256-256c141.386 0 256 114.618 256 256s-114.614 256-256 256z" />
<glyph unicode="&#xe94f;" glyph-name="circle-dashed" d="M475.162 703.828c-43.898-6.256-84.195-23.485-118.086-48.897-8.339-6.252-9.075-18.534-1.706-25.904l0.070-0.070c6-6 15.504-6.765 22.294-1.67 29.376 22.050 64.298 37.015 102.298 42.459 8.448 1.211 14.72 8.432 14.72 16.968 0 10.441-9.251 18.586-19.59 17.114zM480.032 226.253c-38 5.446-72.922 20.41-102.298 42.461-6.79 5.094-16.294 4.333-22.294-1.67l-0.070-0.067c-7.37-7.37-6.634-19.654 1.706-25.904 33.891-25.414 74.189-42.643 118.086-48.899 10.339-1.475 19.59 6.672 19.59 17.114 0 8.534-6.272 15.757-14.72 16.966zM290.253 416.029c-1.211 8.451-8.43 14.72-16.966 14.72-10.442 0-18.586-9.251-17.114-19.587 6.258-43.898 23.485-84.198 48.896-118.090 6.252-8.336 18.535-9.075 25.905-1.706l0.070 0.070c6 6.003 6.765 15.507 1.67 22.294-22.050 29.376-37.015 64.301-42.46 102.298zM330.976 604.634c-7.37 7.366-19.654 6.63-25.906-1.709-25.41-33.891-42.64-74.189-48.898-118.086-1.472-10.336 6.672-19.59 17.114-19.59 8.536 0 15.756 6.272 16.966 14.72 5.445 37.997 20.412 72.922 42.46 102.298 5.098 6.79 4.333 16.294-1.667 22.298l-0.070 0.070zM668.563 267.043c-6.003 6.003-15.507 6.765-22.294 1.67-29.376-22.051-64.301-37.014-102.298-42.461-8.451-1.21-14.72-8.432-14.72-16.966 0-10.442 9.251-18.589 19.59-17.114 43.894 6.256 84.192 23.485 118.086 48.899 8.336 6.25 9.075 18.534 1.706 25.904l-0.070 0.067zM750.714 430.749c-8.534 0-15.757-6.269-16.966-14.72-5.446-37.997-20.41-72.922-42.461-102.298-5.094-6.787-4.33-16.291 1.67-22.294l0.070-0.070c7.37-7.37 19.654-6.63 25.904 1.706 25.411 33.891 42.64 74.192 48.896 118.090 1.475 10.336-6.672 19.587-17.114 19.587zM733.747 479.968c1.21-8.448 8.432-14.72 16.966-14.72 10.442 0 18.589 9.254 17.114 19.59-6.256 43.898-23.488 84.195-48.896 118.086-6.253 8.339-18.534 9.075-25.907 1.709l-0.067-0.070c-6.003-6.003-6.765-15.507-1.67-22.298 22.048-29.376 37.014-64.301 42.461-102.298zM548.842 703.828c-10.339 1.472-19.59-6.673-19.59-17.114 0-8.536 6.269-15.757 14.72-16.968 37.997-5.444 72.922-20.409 102.298-42.459 6.787-5.094 16.291-4.33 22.294 1.67l0.070 0.070c7.37 7.37 6.63 19.652-1.706 25.904-33.894 25.411-74.192 42.641-118.086 48.897z" />
<glyph unicode="&#xe950;" glyph-name="sorting" horiz-adv-x="1365" d="M85.333 896c0 34.667 26.667 64 64 64h1066.667c34.668 0 64-29.333 64-64 0-37.333-29.332-64-64-64h-1066.667c-37.333 0-64 26.667-64 64zM256 469.333c0 34.667 26.667 64 64 64h725.333c34.667 0 64-29.333 64-64 0-37.333-29.333-64-64-64h-725.333c-37.333 0-64 26.667-64 64zM853.333 42.667c0-37.333-29.333-64-64-64h-213.333c-37.333 0-64 26.667-64 64 0 34.667 26.667 64 64 64h213.333c34.667 0 64-29.333 64-64z" />
<glyph unicode="&#xe951;" glyph-name="filled-circle-check" horiz-adv-x="1073" d="M536.381-39.619c-175.238 0-335.238 91.429-422.857 243.81-87.619 150.474-87.619 335.238 0 487.619 87.619 150.476 247.619 243.81 422.857 243.81 173.334 0 333.332-93.333 420.952-243.81 87.62-152.381 87.62-337.145 0-487.619-87.62-152.381-247.618-243.81-420.952-243.81zM751.621 537.524h-1.907c19.046 17.143 19.046 45.714 0 64.762-17.145 17.143-45.714 17.143-62.859 0l-211.427-213.331-89.524 89.522c-19.047 19.047-47.619 19.047-64.762 0-19.048-17.145-19.048-45.714 0-62.859l121.905-121.905c17.143-19.046 45.712-19.046 64.764 0l243.81 243.811z" />
<glyph unicode="&#xe952;" glyph-name="close-cross-exit-quit-delete" d="M698.842 293.158c-6.88-6.877-18.013-6.877-24.89 0l-145.952 145.952-145.952-145.952c-6.877-6.877-18.010-6.877-24.89 0-6.877 6.88-6.877 18.013 0 24.89l145.952 145.952-145.952 145.952c-6.877 6.877-6.877 18.010 0 24.89 6.88 6.878 18.013 6.878 24.89 0l145.952-145.952 145.952 145.952c6.877 6.878 18.010 6.878 24.89 0 6.877-6.88 6.877-18.013 0-24.89l-145.952-145.952 145.952-145.952c6.877-6.877 6.877-18.010 0-24.89z" />
<glyph unicode="&#xe953;" glyph-name="star-circle-star" d="M512 704c-141.386 0-256-114.618-256-256s114.614-256 256-256c141.386 0 256 114.618 256 256s-114.614 256-256 256zM512 226.134c-122.336 0-221.867 99.53-221.867 221.866s99.531 221.867 221.867 221.867c122.336 0 221.866-99.531 221.866-221.867s-99.53-221.866-221.866-221.866zM656.32 507.238l-87.818 12.778-39.258 79.434c-3.523 7.104-10.406 10.685-17.286 10.685-6.838 0-13.674-3.539-17.203-10.685l-39.258-79.434-87.818-12.778c-15.76-2.275-22.070-21.654-10.65-32.752l63.546-61.792-15.027-87.29c-2.138-12.477 7.808-22.47 18.966-22.47 2.957 0 6.003 0.704 8.928 2.25l78.557 41.219 78.557-41.219c2.918-1.533 5.955-2.227 8.909-2.227 11.162 0 21.123 9.962 18.986 22.448l-15.027 87.29 63.546 61.792c11.421 11.098 5.11 30.477-10.65 32.752zM573.181 430.896c-4.035-3.923-5.875-9.584-4.922-15.13l11.418-66.326-59.747 31.35c-4.966 2.605-10.893 2.605-15.859 0l-59.747-31.35 11.418 66.326c0.954 5.546-0.886 11.206-4.922 15.13l-48.256 46.928 66.72 9.706c5.555 0.81 10.355 4.294 12.842 9.328l29.875 60.445 29.875-60.445c2.486-5.034 7.286-8.518 12.842-9.328l66.72-9.706-48.256-46.928z" />
<glyph unicode="&#xe954;" glyph-name="diagram-project" d="M784 704h-96c-26.509 0-48-21.49-48-48v-96c0-26.509 21.491-48 48-48h96c26.509 0 48 21.491 48 48v96c0 26.51-21.491 48-48 48zM800 560c0-8.822-7.178-16-16-16h-96c-8.822 0-16 7.178-16 16v96c0 8.822 7.178 16 16 16h96c8.822 0 16-7.178 16-16v-96zM560 384h-96c-26.509 0-48-21.491-48-48v-96c0-26.509 21.491-48 48-48h96c26.509 0 48 21.491 48 48v96c0 26.509-21.491 48-48 48zM576 240c0-8.822-7.178-16-16-16h-96c-8.822 0-16 7.178-16 16v96c0 8.822 7.178 16 16 16h96c8.822 0 16-7.178 16-16v-96zM592 624h-208v32c0 26.51-21.491 48-48 48h-96c-26.51 0-48-21.49-48-48v-96c0-26.509 21.49-48 48-48h96c2.17 0 4.243 0.358 6.336 0.64l59.757-104.579c2.97-5.171 8.378-8.061 13.907-8.061 2.72 0 5.437 0.672 7.939 2.109 7.686 4.374 10.342 14.157 5.968 21.83l-59.014 103.27c8.074 8.589 13.107 20.074 13.107 32.79v32h208c8.845 0 16 7.155 16 16s-7.155 16-16 16zM352 560c0-8.822-7.178-16-16-16h-96c-8.822 0-16 7.178-16 16v96c0 8.822 7.178 16 16 16h96c8.822 0 16-7.178 16-16v-96z" />
<glyph unicode="&#xe955;" glyph-name="diamond" d="M720.944 732.235c1.879-18.824-3.771-35.765-16.944-48.941l-150.588-150.588c-9.412-11.294-22.588-16.941-35.765-16.941-3.765-1.882-9.412-1.882-13.176 0-13.176 0-26.353 5.647-35.765 16.941l-150.588 148.706c-13.176 15.059-18.824 32-16.941 50.824 1.882 13.176 7.529 24.471 16.941 35.765l139.294 139.294c30.118 28.235 77.176 28.235 107.294 0l139.294-139.294c9.415-11.294 15.059-22.588 16.944-35.765zM442.353 453.647h1.882c0-3.765 0-9.412 0-13.176-1.882-13.176-7.529-26.353-18.824-35.765l-148.706-150.591c-15.059-13.173-32-18.818-50.824-16.938-13.176 1.879-24.471 7.529-35.765 16.938l-139.294 139.297c-28.235 30.118-28.235 77.176 0 107.294l139.294 139.294c11.294 9.412 22.588 15.059 35.765 16.941 18.824 1.882 35.765-3.765 50.824-16.941l148.706-150.588c11.294-9.412 16.941-22.588 16.941-35.765zM504.471 378.353c5.647 1.882 9.412 1.882 13.176 0 13.176 0 26.353-5.647 35.765-16.941l150.588-148.703c13.173-15.059 18.824-32.003 16.944-50.827-1.885-13.179-7.529-24.468-16.944-35.768l-139.294-139.288c-30.118-28.238-77.176-28.238-107.294 0l-139.294 139.288c-9.412 11.3-15.059 22.588-16.941 35.768-1.882 18.824 3.765 35.768 16.941 50.827l150.588 148.703c9.412 11.294 22.588 16.941 35.765 16.941zM579.765 440.471c-1.882 5.647-1.882 9.412 0 13.176 0 13.176 7.529 26.353 16.941 35.765l150.585 150.588c13.179 13.176 30.118 18.824 48.947 16.941 13.173-1.882 26.347-7.529 35.762-16.941l139.294-139.294c30.118-30.118 30.118-77.176 0-107.294l-139.294-139.297c-11.294-9.409-22.588-15.059-35.762-16.938-18.83-1.879-35.768 3.765-48.947 16.938l-150.585 150.591c-11.294 9.412-16.941 22.588-16.941 35.765zM512 832l-109.176-107.294 109.176-107.294 107.291 107.294-107.291 107.294zM126.118 448l107.294-109.176 107.294 109.176-107.294 107.294-107.294-107.294zM512 62.121l107.291 107.291-107.291 107.291-109.176-107.291 109.176-107.291zM896 448l-107.291 107.294-107.297-107.294 107.297-109.176 107.291 109.176z" />
<glyph unicode="&#xe956;" glyph-name="lightning" d="M712.001 785.6l-123.201-288h179.2c20.801 0 39.997-12.8 47.998-32 6.403-20.8 1.604-43.2-14.397-57.6l-409.601-358.397c-19.2-14.404-44.8-16.002-64-1.604-19.2 12.8-27.2 38.4-17.6 60.798l123.199 288.003h-177.6c-22.4 0-41.6 12.8-48 32-8 20.8-3.2 43.2 12.8 57.6l409.6 358.4c19.199 14.4 44.799 16 64.001 1.6 19.197-12.8 27.197-38.4 17.599-60.8z" />
<glyph unicode="&#xe957;" glyph-name="inboxes" d="M763.712 523.117l-61.994 160.758c-4.874 12.156-16.624 20.125-29.718 20.125h-320c-13.094 0-24.845-7.969-29.718-20.125l-61.995-160.758c-2.834-7.347-4.287-15.155-4.287-23.030v-68.086c0-26.509 21.49-48 48-48h416c26.509 0 48 21.491 48 48v68.086c0 7.875-1.453 15.683-4.288 23.030zM352 672h320l-0.138 0.361 49.501-128.361h-81.363c-6.061 0-11.594-3.437-14.314-8.845l-27.578-55.155h-172.218l-27.581 55.155c-2.717 5.408-8.25 8.845-14.31 8.845h-81.361l49.361 128zM736 432c0-8.822-7.178-16-16-16h-416c-8.822 0-16 7.178-16 16v68.086c0 3.955 0.721 7.827 2.145 11.517l0.152 0.397h83.812l27.581-55.155c2.717-5.408 8.25-8.845 14.31-8.845h192c6.061 0 11.594 3.437 14.314 8.845l27.578 55.155h83.811l0.154-0.397c1.424-3.69 2.144-7.562 2.144-11.517v-68.086zM720 352h-80.003c-6.058 0-11.6-3.424-14.31-8.845l-27.578-55.155h-172.218l-27.578 55.155c-2.71 5.421-8.253 8.845-14.314 8.845h-80c-26.51 0-48-21.491-48-48v-64c0-26.509 21.49-48 48-48h416c26.509 0 48 21.491 48 48v64c0 26.509-21.491 48-48 48zM736 240c0-8.835-7.162-16-16-16h-416c-8.836 0-16 7.165-16 16v64c0 8.835 7.164 16 16 16h70.109l27.581-55.155c2.707-5.421 8.25-8.845 14.307-8.845h192.003c6.061 0 11.603 3.424 14.314 8.845l27.578 55.155h70.109c8.838 0 16-7.165 16-16v-64z" />
<glyph unicode="&#xe958;" glyph-name="message-envelope" d="M704 640h-384c-35.346 0-64-28.653-64-64v-256c0-35.347 28.654-64 64-64h384c35.347 0 64 28.653 64 64v256c0 35.347-28.653 64-64 64zM320 608h384c17.645 0 32-14.355 32-32v-36.006l-195.187-146.4c-17.002-12.72-40.624-12.72-57.626 0l-195.187 146.4v36.006c0 17.645 14.355 32 32 32zM736 320c0-17.645-14.355-32-32-32h-384c-17.645 0-32 14.355-32 32v180.006l176-132.006c14.125-10.608 31.062-15.907 48-15.907s33.875 5.299 48 15.907l176 132.006v-180.006z" />
<glyph unicode="&#xe959;" glyph-name="three-dots" horiz-adv-x="983" d="M491.52 332.8c19.038 0 35.84-11.198 45.92-26.882 10.080-16.798 10.080-38.076 0-53.756-10.080-16.802-26.882-26.882-45.92-26.882-20.161 0-36.958 10.080-47.038 26.882-10.080 15.679-10.080 36.958 0 53.756 10.080 15.684 26.878 26.882 47.038 26.882zM491.52 512c19.038 0 35.84-11.198 45.92-26.882 10.080-16.798 10.080-38.076 0-53.756-10.080-16.802-26.882-26.882-45.92-26.882-20.161 0-36.958 10.080-47.038 26.882-10.080 15.679-10.080 36.958 0 53.756 10.080 15.684 26.878 26.882 47.038 26.882zM545.28 637.44c0-20.16-11.198-36.96-26.882-47.040-16.798-10.080-38.076-10.080-53.756 0-16.802 10.080-26.882 26.88-26.882 47.040 0 19.040 10.080 35.84 26.882 45.92 15.679 10.080 36.958 10.080 53.756 0 15.684-10.080 26.882-26.88 26.882-45.92z" />
<glyph unicode="&#xe95a;" glyph-name="waveform-lines" d="M350.317 708c-14.822 0-26.947-11.7-26.947-26v-468c0-14.301 12.125-26 26.947-26 14.819 0 26.947 11.699 26.947 26v468c0 14.3-12.128 26-26.947 26zM188.632 552c-14.821 0-26.948-11.699-26.948-26v-156c0-14.301 12.126-26 26.948-26s26.947 11.699 26.947 26v156c0 14.301-12.126 26-26.947 26zM26.947 500c-14.821 0-26.947-11.699-26.947-26v-52c0-14.301 12.126-26 26.947-26s26.947 11.699 26.947 26v52c0 14.301-12.126 26-26.947 26zM673.683 656c-14.819 0-26.947-11.7-26.947-26v-364c0-14.301 12.128-26 26.947-26 14.822 0 26.947 11.699 26.947 26v364c0 14.3-12.125 26-26.947 26zM997.053 500c-14.822 0-26.947-11.699-26.947-26v-52c0-14.301 12.125-26 26.947-26s26.947 11.699 26.947 26v52c0 14.301-12.125 26-26.947 26zM835.37 760c-14.822 0-26.947-11.7-26.947-26v-572c0-14.301 12.125-26 26.947-26 14.819 0 26.947 11.699 26.947 26v572c0 14.3-12.128 26-26.947 26zM512 864c-14.822 0-26.947-11.7-26.947-26v-780c0-14.301 12.125-26 26.947-26s26.947 11.699 26.947 26v780c0 14.3-12.125 26-26.947 26z" />
<glyph unicode="&#xe95b;" glyph-name="messages-dialogs" d="M819.2 616h-153.6v-38h153.6c21.174 0 38.4-17.046 38.4-38v-228c0-20.954-17.226-38-38.4-38h-76.8v-58.861l-105.085 58.861h-125.315c-21.174 0-38.4 17.046-38.4 38v38h-38.4v-38c0-41.859 34.499-76 76.8-76h115.2l130.65-73.181c2.701-1.93 5.699-2.819 8.55-2.819 7.501 0 14.4 5.789 14.4 14.25v61.75h38.4c42.301 0 76.8 34.141 76.8 76v228c0 41.859-34.499 76-76.8 76zM627.2 464v228c0 41.86-34.499 76-76.8 76h-345.6c-42.3 0-76.8-34.14-76.8-76v-228c0-41.859 34.5-76 76.8-76h38.4v-61.75c0-8.461 6.9-14.25 14.4-14.25 2.85 0 5.85 0.89 8.55 2.819l130.65 73.181h153.6c42.301 0 76.8 34.141 76.8 76zM386.688 426l-105.088-58.861v58.861h-76.8c-21.174 0-38.4 17.046-38.4 38v228c0 20.953 17.226 38 38.4 38h345.6c21.174 0 38.4-17.047 38.4-38v-228c0-20.954-17.226-38-38.4-38h-163.712z" />
<glyph unicode="&#xe95c;" glyph-name="note-memo-draft" d="M768 386.867v243.99c0 40.395-32.746 73.142-73.142 73.142h-365.715c-40.395 0-73.142-32.748-73.142-73.142v-365.715c0-40.394 32.748-73.142 73.142-73.142h243.99c19.398 0 38.003 7.706 51.718 21.424l121.728 121.725c13.715 13.718 21.421 32.32 21.421 51.718zM598.992 239.286c-3.946-3.946-8.733-6.55-13.85-8.342v125.629c0 10.086 8.214 18.285 18.285 18.285h125.629c-1.792-5.117-4.394-9.907-8.339-13.853l-121.725-121.718zM731.427 411.427h-128c-30.25 0-54.854-24.605-54.854-54.854v-128h-219.43c-20.165 0-36.571 16.403-36.571 36.57v365.715c0 20.165 16.406 36.571 36.571 36.571h365.715c20.166 0 36.57-16.406 36.57-36.571v-219.43z" />
<glyph unicode="&#xe95d;" glyph-name="pen-to-square" d="M688 383.997c-8.835 0-16-7.162-16-16v-112c0-17.674-14.326-32-32-32h-320c-17.672 0-32 14.326-32 32v320c0 17.674 14.328 32 32 32h112c8.838 0 16 7.165 16 16 0 8.838-7.162 16-16 16h-112c-35.346 0-64-28.653-64-64v-320c0-35.344 28.654-64 64-64h320c35.347 0 64 28.656 64 64v112c0 8.838-7.162 16-16 16zM753.942 661.803l-28.134 28.136c-9.373 9.373-21.654 14.061-33.942 14.061-12.285 0-24.566-4.688-33.939-14.061l-239.523-239.526c-8.938-8.934-15.027-20.314-17.504-32.707l-16.666-83.344c-1.514-7.584 4.381-14.358 11.725-14.358 0.784 0 1.584 0.077 2.397 0.24l83.35 16.672c12.387 2.477 23.766 8.563 32.698 17.498l239.536 239.507c18.746 18.746 18.749 49.137 0.003 67.883zM491.776 377.040c-4.48-4.48-10.134-7.504-16.346-8.746l-53.933-10.79 10.781 53.926c1.242 6.218 4.269 11.875 8.752 16.355l178.275 178.282 50.762-50.762-178.291-178.266zM731.315 616.55l-38.624-38.618-50.758 50.758 38.621 38.623c4.077 4.077 8.838 4.686 11.312 4.686 2.477 0 7.238-0.609 11.315-4.686l28.134-28.136c4.077-4.080 4.685-8.838 4.685-11.315s-0.608-7.238-4.685-11.312z" />
<glyph unicode="&#xe95e;" glyph-name="placeholder-picture-image" d="M609.776 574.202c-14.624 22.339-51.286 22.259-65.872 0.080l-94.157-142.314-20.995 29.011c-14.723 20.49-49.158 20.528-64.003 0.038l-82.949-114.63c-8.739-12.093-9.964-27.923-3.275-41.142 6.729-13.459 20.25-21.818 35.297-21.818h414.643c14.666 0 28.026 8.077 34.896 21.056 6.829 12.858 6.086 28.406-1.949 40.579l-151.635 229.139zM315.168 324.573l80.215 112.339 38.451-53.158c3.958-5.462 10.688-9.322 17.098-8.518 6.749 0.163 13.018 3.578 16.733 9.242l107.779 167.062 150.189-226.966h-410.464zM768 736h-493.714c-45.445 0-82.286-36.841-82.286-82.286v-411.429c0-45.443 36.841-82.285 82.286-82.285h493.714c45.446 0 82.285 36.842 82.285 82.285v411.429c0 45.445-36.838 82.286-82.285 82.286zM809.142 242.285c0-22.685-18.454-41.142-41.142-41.142h-493.714c-22.686 0-41.143 18.458-41.143 41.142v411.429c0 22.686 18.457 41.143 41.143 41.143h493.714c22.688 0 41.142-18.457 41.142-41.143v-411.429zM377.142 530.285c34.083 0 61.715 27.632 61.715 61.715s-27.632 61.714-61.715 61.714c-34.083 0-61.714-27.631-61.714-61.714s27.631-61.715 61.714-61.715zM377.142 612.573c11.344 0 20.573-9.229 20.573-20.573s-9.229-20.573-20.573-20.573c-11.341 0-20.57 9.229-20.57 20.573s9.229 20.573 20.57 20.573z" />
<glyph unicode="&#xe95f;" glyph-name="settings-gears-light" d="M354.189 590.691c-31.296 0-56.762-25.552-56.762-56.957 0-31.402 25.466-56.954 56.762-56.954 31.293 0 56.758 25.552 56.758 56.954 0 31.405-25.466 56.957-56.758 56.957zM354.189 509.325c-13.414 0-24.326 10.966-24.326 24.41 0 13.446 10.912 24.41 24.326 24.41s24.326-10.963 24.326-24.41c0-13.443-10.915-24.41-24.326-24.41zM828.387 388.995c-2.454 11.885-13.126 20.499-25.37 20.499h-20.128c-3.581 7.946-7.936 15.51-13.021 22.63l10.138 17.606c2.262 3.974 3.469 8.486 3.469 13.034 0 7.373-3.12 14.397-8.586 19.29-17.293 15.386-37.152 26.858-59.008 34.106-11.498 3.75-24.31-1.114-30.49-11.76l-9.754-16.973c-8.902 0.954-17.453 0.986-26.64 0l-9.786 17.005c-6.147 10.646-18.896 15.606-30.426 11.728-21.885-7.248-41.747-18.72-59.088-34.138-5.418-4.861-8.538-11.885-8.538-19.258 0-4.547 1.206-9.059 3.501-13.098l9.946-17.258c-5.178-7.216-9.597-14.874-13.222-22.915h-19.766c-12.243 0-22.915-8.614-25.357-20.467-2.406-11.507-3.626-23.046-3.626-34.294 0-11.251 1.219-22.79 3.613-34.266 2.454-11.885 13.126-20.499 25.37-20.499h19.766c3.626-8.042 8.045-15.699 13.222-22.915l-9.978-17.322c-2.262-3.974-3.469-8.486-3.469-13.034 0-7.437 3.152-14.493 8.57-19.258 17.277-15.386 37.155-26.858 59.027-34.138 11.558-3.782 24.307 1.082 30.454 11.728l9.786 17.005c9.171-0.986 17.597-0.986 26.64 0.032l9.786-17.037c4.752-8.23 13.478-13.030 22.474-13.030 2.646 0 5.338 0.413 7.952 1.302 21.901 7.28 41.779 18.752 58.979 34.074 5.494 4.829 8.646 11.885 8.646 19.322 0 4.547-1.206 9.059-3.501 13.098l-10.106 17.542c5.085 7.12 9.44 14.685 13.021 22.63h20.128c12.243 0 22.915 8.614 25.357 20.467 2.406 11.507 3.626 23.046 3.626 34.298 0 11.248-1.219 22.787-3.613 34.262zM797.648 332.515h-37.232l-3.802-10.902c-4.118-11.824-10.374-22.694-18.576-32.259l-7.491-8.774 18.64-32.387c-11.546-9.469-24.406-16.909-38.39-22.182l-18.355 31.942-11.325-2.163c-12.195-2.352-25.386-2.352-37.645-0.032l-11.309 2.163-18.323-31.91c-13.952 5.245-26.813 12.682-38.39 22.182l18.515 32.166-7.539 8.771c-8.298 9.632-14.618 20.566-18.768 32.483l-3.798 10.902h-36.87c-1.267 7.501-1.917 14.938-1.917 22.218 0 7.245 0.634 14.714 1.917 22.214h36.87l3.798 10.902c4.15 11.92 10.47 22.851 18.768 32.483l7.539 8.771-18.531 32.166c11.562 9.469 24.438 16.909 38.406 22.182l18.323-31.91 11.309 2.163c12.227 2.32 25.389 2.384 37.581-0.032l11.373-2.224 18.371 32.003c13.968-5.274 26.861-12.714 38.406-22.182l-18.656-32.387 7.491-8.774c8.202-9.565 14.458-20.435 18.576-32.259l3.802-10.902h37.232c1.267-7.501 1.917-14.938 1.917-22.214 0-7.248-0.634-14.717-1.917-22.218zM503.328 510.566l-16.899 9.789c0.506 4.544 0.746 8.931 0.746 13.19 0 4.451-0.253 8.931-0.762 13.539l16.947 9.821c10.611 6.198 15.536 19.040 11.718 30.544-7.286 22.026-18.736 41.955-34.051 59.308-7.869 8.868-22.061 10.997-32.211 5.021l-17.517-10.138c-7.094 5.117-14.618 9.471-22.538 13.063v20.213c0 12.205-8.534 22.916-20.397 25.459-22.806 4.831-45.469 4.831-68.433 0-11.783-2.543-20.336-13.254-20.336-25.459v-20.214c-7.903-3.591-15.441-7.945-22.521-13.062l-17.452 10.107c-10.326 6.039-24.5 3.814-32.324-5.053-15.267-17.29-26.717-37.22-33.987-59.213-3.832-11.536 1.093-24.378 11.735-30.576l16.914-9.821c-0.507-4.608-0.76-9.088-0.76-13.539 0-4.259 0.238-8.646 0.745-13.19l-16.851-9.757c-10.69-6.134-15.648-19.008-11.799-30.576 7.301-22.026 18.736-41.955 33.924-59.117 7.791-8.995 22.124-11.126 32.34-5.245l17.216 9.981c7.142-5.181 14.776-9.6 22.821-13.254v-19.834c0-12.205 8.553-22.915 20.414-25.459 11.405-2.416 22.902-3.622 34.179-3.622 11.274 0 22.771 1.206 34.253 3.622 11.786 2.544 20.32 13.254 20.32 25.459v19.834c8.048 3.654 15.68 8.074 22.822 13.254l17.168-9.917c10.342-6.042 24.563-3.782 32.307 5.053 15.283 17.29 26.72 37.219 34.003 59.213 3.85 11.568-1.075 24.442-11.734 30.576zM452.806 552.582c1.171-6.163 1.933-12.522 1.933-19.037 0-6.419-0.778-12.65-1.917-18.752l-2.106-11.315 31.754-18.403c-5.258-14.016-12.672-26.918-22.109-38.49l-32.070 18.528-8.726-7.562c-9.552-8.266-20.448-14.621-32.387-18.816l-10.851-3.814v-36.995c-14.87-2.544-29.488-2.544-44.294 0v36.995l-10.851 3.814c-11.956 4.227-22.836 10.55-32.37 18.816l-8.711 7.594-32.086-18.56c-9.423 11.536-16.836 24.442-22.109 38.49l31.754 18.403-2.106 11.315c-1.14 6.102-1.917 12.333-1.917 18.752 0 6.515 0.76 12.874 1.933 19.037l2.154 11.347-31.818 18.467c5.259 14.016 12.67 26.918 22.093 38.522l32.292-18.72 8.727 7.501c9.565 8.262 20.382 14.525 32.148 18.656l10.867 3.814v37.377c14.902 2.543 29.488 2.543 44.294 0v-37.409l10.883-3.782c11.75-4.131 22.582-10.394 32.147-18.656l8.726-7.501 32.294 18.72c9.421-11.603 16.819-24.506 22.093-38.522l-31.818-18.467 2.154-11.347zM662.32 411.686c-31.296 0-56.762-25.552-56.762-56.954 0-31.405 25.466-56.957 56.762-56.957 31.293 0 56.762 25.552 56.762 56.957 0 31.402-25.469 56.954-56.762 56.954zM662.32 330.323c-13.414 0-24.326 10.963-24.326 24.41 0 13.443 10.912 24.41 24.326 24.41s24.326-10.966 24.326-24.41c0-13.446-10.912-24.41-24.326-24.41z" />
<glyph unicode="&#xe960;" glyph-name="clock-rotate-left" horiz-adv-x="945" d="M88.615 723.077c84.923 118.154 225.231 197.538 384 197.538 260.308 0 472.615-212.307 472.615-472.615 0-262.153-212.307-472.615-472.615-472.615-97.846 0-186.462 27.695-262.153 77.54-20.308 12.918-25.847 40.613-11.077 60.92 12.923 20.307 40.616 25.844 60.923 12.926 60.922-40.621 132.923-62.771 212.307-62.771 210.462 0 384 171.693 384 384 0 210.462-173.538 384-384 384-136.616 0-256.615-72-324.923-177.231h103.385c24 0 44.308-20.307 44.308-44.308 0-25.846-20.307-44.308-44.308-44.308h-206.769c-25.846 0-44.308 18.462-44.308 44.308v206.769c0 24 18.462 44.308 44.308 44.308 24 0 44.308-20.307 44.308-44.308v-94.154zM472.615 684.308h-1.846c25.847 0 44.308-20.307 44.308-44.308v-175.384l120-120c18.462-16.616 18.462-44.308 0-60.923-16.616-18.461-44.308-18.461-60.923 0l-132.923 132.923c-9.23 7.385-12.923 18.462-12.923 31.385v192c0 24 18.462 44.308 44.308 44.308z" />
<glyph unicode="&#xe961;" glyph-name="user-headset" d="M511.683 608h0.637c37.747 0 71.974-22.099 87.43-56.624 15.376-34.627 8.874-75.126-16.499-103.126 0-0.125 0.125-0.125 0.125-0.25h8.624c16.499 0 31.875 8.624 40.499 22.624 4.499 13.002 7.501 26.752 7.501 41.376 0 70.749-57.251 128-128 128s-128-57.251-128-128c0-40.374 19.126-76 48.374-99.501-0.125 1.251-0.374 2.25-0.374 3.501 0.125 11.251 3.126 22.374 8.874 32-25.498 28-32.125 68.499-16.749 103.251 15.456 34.525 49.683 56.749 87.558 56.749zM336 480c8.874 0 16 7.126 16 16v16c0 88.25 71.75 160 160 160s160-71.75 160-160v-16c0-44.125-35.875-80-80-80h-32c0 17.626-14.374 32-32 32h-32c-17.626 0-32-14.374-32-32s14.374-32 32-32h96c61.875 0.125 111.875 50.125 112 112v16c0 105.875-86.125 192-192 192s-192-86.125-192-192v-16c0-8.874 7.126-16 16-16zM602.666 352h-181.331c-73.635 0-133.334-59.696-133.334-133.331 0-14.726 11.941-26.669 26.664-26.669h394.67c14.723 0 26.666 11.942 26.666 26.669 0 73.635-59.693 133.331-133.334 133.331zM320.138 224c2.781 53.408 47.107 96 101.197 96h181.331c54.090 0 98.416-42.592 101.197-96h-383.725z" />
<glyph unicode="&#xe962;" glyph-name="grid-2-plus" d="M928 960h-256c-53.020 0-96-42.98-96-96v-256c0-53.020 42.98-96 96-96h256c53.018 0 96 42.98 96 96v256c0 53.020-42.982 96-96 96zM960 608c0-17.644-14.355-32-32-32h-256c-17.645 0-32 14.356-32 32v256c0 17.644 14.355 32 32 32h256c17.645 0 32-14.356 32-32v-256zM352 384h-256c-53.020 0-96-42.98-96-96v-256c0-53.018 42.98-96 96-96h256c53.020 0 96 42.982 96 96v256c0 53.020-42.98 96-96 96zM384 32c0-17.645-14.356-32-32-32h-256c-17.644 0-32 14.355-32 32v256c0 17.645 14.356 32 32 32h256c17.644 0 32-14.355 32-32v-256zM352 960h-256c-53.020 0-96-42.98-96-96v-256c0-53.020 42.98-96 96-96h256c53.020 0 96 42.98 96 96v256c0 53.020-42.98 96-96 96zM384 608c0-17.644-14.356-32-32-32h-256c-17.644 0-32 14.356-32 32v256c0 17.644 14.356 32 32 32h256c17.644 0 32-14.356 32-32v-256zM992 192h-160v160c0 17.688-14.31 32-32 32s-32-14.312-32-32v-160h-160c-17.688 0-32-14.31-32-32s14.312-32 32-32h160v-160c0-17.69 14.31-32 32-32s32 14.31 32 32v160h160c17.69 0 32 14.31 32 32s-14.31 32-32 32z" />
<glyph unicode="&#xe963;" glyph-name="fa-solid-check" d="M998.139 668.060l-564.965-564.966c-17.242-17.24-39.827-25.86-62.416-25.86-22.587 0-45.171 8.62-62.413 25.86l-282.483 282.483c-34.483 34.483-34.483 90.346 0 124.829s90.346 34.483 124.827 0l220.069-220.069 502.553 502.553c34.482 34.482 90.345 34.482 124.827 0 34.485-34.483 34.485-90.346 0.002-124.829z" />
<glyph unicode="&#xe964;" glyph-name="sort-descending" horiz-adv-x="1317" d="M822.857 45.714h-146.284c-20.215 0-36.571-16.355-36.571-36.571s16.356-36.571 36.571-36.571h146.284c20.217 0 36.571 16.355 36.571 36.571s-16.355 36.571-36.571 36.571zM969.143 338.286h-292.57c-20.215 0-36.571-16.357-36.571-36.571s16.356-36.571 36.571-36.571h292.57c20.217 0 36.571 16.357 36.571 36.571s-16.355 36.571-36.571 36.571zM1115.429 630.857h-438.856c-20.215 0-36.571-16.357-36.571-36.571s16.356-36.571 36.571-36.571h438.856c20.217 0 36.571 16.357 36.571 36.571s-16.355 36.571-36.571 36.571zM1261.714 923.429h-585.141c-20.215 0-36.571-16.357-36.571-36.571s16.356-36.571 36.571-36.571h585.141c20.217 0 36.571 16.356 36.571 36.571s-16.355 36.571-36.571 36.571zM493.716 228.571c-9.358 0-18.716-3.569-25.859-10.715l-156.998-157.001v862.574c0 20.215-16.357 36.571-36.571 36.571s-36.571-16.357-36.571-36.571v-862.574l-157.001 157.001c-14.286 14.286-37.429 14.286-51.715 0s-14.286-37.427 0-51.712l219.428-219.429c14.286-14.285 37.431-14.285 51.715 0l219.429 219.429c14.286 14.285 14.286 37.427 0 51.712-7.143 7.146-16.499 10.715-25.856 10.715z" />
<glyph unicode="&#xe965;" glyph-name="sort-alphanumeric-descending" horiz-adv-x="1170" d="M1111.559-10.949l-182.843 365.665c-12.427 24.714-52.999 24.714-65.434 0l-182.841-365.665c-9.035-18.066-1.714-39.995 16.359-49.072 18.071-9.143 40.033-1.638 49.066 16.362l26.463 52.926h247.34l26.463-52.926c7.073-14.073 27.604-27.165 49.072-16.362 18.066 9.077 25.388 31.005 16.355 49.072zM808.901 82.395l87.099 174.194 87.106-174.194h-174.204zM749.722 886.866h216.452l-245.020-306.242c-8.782-10.999-10.459-26-4.389-38.713 6.102-12.643 18.891-20.716 32.957-20.716h292.557c20.217 0 36.564 16.358 36.564 36.571s-16.347 36.565-36.564 36.565h-216.452l245.021 306.249c8.784 10.999 10.459 25.991 4.389 38.706-6.1 12.642-18.885 20.713-32.958 20.713h-292.557c-20.212 0-36.564-16.357-36.564-36.571 0-20.206 16.353-36.562 36.564-36.562zM530.287 228.571c-9.358 0-18.716-3.569-25.859-10.715l-156.998-157.001v862.574c0 20.215-16.357 36.571-36.571 36.571s-36.571-16.357-36.571-36.571v-862.574l-157.001 157.001c-14.286 14.286-37.429 14.286-51.715 0s-14.286-37.427 0-51.712l219.428-219.429c14.286-14.285 37.431-14.285 51.715 0l219.429 219.429c14.286 14.285 14.286 37.427 0 51.712-7.143 7.146-16.499 10.715-25.856 10.715z" />
<glyph unicode="&#xe966;" glyph-name="sort-alphanumeric-ascending" horiz-adv-x="1170" d="M1111.559 574.071l-182.85 365.714c-12.434 24.715-53.007 24.715-65.434 0l-182.85-365.714c-9.038-18.071-1.714-40 16.357-49.070 18.071-9.143 40.036-1.644 49.069 16.356l26.463 52.928h247.355l26.463-52.928c7.073-14.070 27.604-27.161 49.072-16.356 18.066 9.070 25.388 30.999 16.355 49.070zM808.887 667.429l87.106 174.215 87.106-174.215h-174.212zM1042.271 9.143h-216.459l245.036 306.286c8.784 10.999 10.459 26 4.389 38.715-6.107 12.643-18.893 20.713-32.965 20.713h-292.557c-20.218 0-36.575-16.357-36.575-36.571s16.357-36.571 36.575-36.571h216.459l-245.034-306.286c-8.787-11.001-10.465-26.002-4.394-38.715 6.107-12.646 18.896-20.714 32.968-20.714h292.557c20.217 0 36.571 16.355 36.571 36.571s-16.355 36.571-36.571 36.571zM530.287 228.571c-9.358 0-18.716-3.569-25.859-10.715l-156.998-157.001v862.574c0 20.215-16.357 36.571-36.571 36.571s-36.571-16.357-36.571-36.571v-862.574l-157.001 157.001c-14.286 14.286-37.429 14.286-51.715 0s-14.286-37.427 0-51.712l219.428-219.429c14.286-14.285 37.431-14.285 51.715 0l219.429 219.429c14.286 14.285 14.286 37.427 0 51.712-7.143 7.146-16.499 10.715-25.856 10.715z" />
<glyph unicode="&#xe967;" glyph-name="sort-ascending" horiz-adv-x="1317" d="M676.573 557.714h292.57c20.217 0 36.571 16.357 36.571 36.571s-16.355 36.571-36.571 36.571h-292.57c-20.215 0-36.571-16.357-36.571-36.571s16.356-36.571 36.571-36.571zM676.573 265.143h438.856c20.217 0 36.571 16.357 36.571 36.571s-16.355 36.571-36.571 36.571h-438.856c-20.215 0-36.571-16.357-36.571-36.571s16.356-36.571 36.571-36.571zM676.573 850.286h146.284c20.217 0 36.571 16.356 36.571 36.571s-16.355 36.571-36.571 36.571h-146.284c-20.215 0-36.571-16.357-36.571-36.571s16.356-36.571 36.571-36.571zM1261.714 45.714h-585.141c-20.215 0-36.571-16.355-36.571-36.571s16.356-36.571 36.571-36.571h585.141c20.217 0 36.571 16.355 36.571 36.571s-16.355 36.571-36.571 36.571zM493.716 228.571c-9.358 0-18.716-3.569-25.859-10.715l-156.998-157.001v862.574c0 20.215-16.357 36.571-36.571 36.571s-36.571-16.357-36.571-36.571v-862.574l-157.001 157.001c-14.286 14.286-37.429 14.286-51.715 0s-14.286-37.427 0-51.712l219.428-219.429c14.286-14.285 37.431-14.285 51.715 0l219.429 219.429c14.286 14.285 14.286 37.427 0 51.712-7.143 7.146-16.499 10.715-25.856 10.715z" />
<glyph unicode="&#xe968;" glyph-name="solid-circle-info" d="M512 960c-282.775 0-512-229.35-512-512 0-282.833 229.225-512 512-512s512 229.167 512 512c0 282.65-229.224 512-512 512zM512 721.067c37.705 0 68.267-30.562 68.267-68.267 0-37.7-30.562-68.267-68.267-68.267s-68.267 30.566-68.267 68.267c0 37.705 30.562 68.267 68.267 68.267zM597.333 174.933h-170.667c-28.267 0-51.2 22.933-51.2 51.2s22.933 51.2 51.2 51.2h34.133v136.533h-17.067c-28.267 0-51.2 22.933-51.2 51.2s22.933 51.2 51.2 51.2h68.267c28.267 0 51.2-22.933 51.2-51.2v-187.733h34.133c28.267 0 51.2-22.933 51.2-51.2s-22.933-51.2-51.2-51.2z" />
<glyph unicode="&#xe969;" glyph-name="rotate-left" d="M736 448c0-123.501-100.499-224-224-224-69.376 0-133.75 31.405-176.563 86.125-5.437 6.97-4.218 17.030 2.72 22.47 6.97 5.498 16.998 4.25 22.467-2.72 36.72-46.97 91.907-73.875 151.376-73.875 105.875 0 192 86.125 192 192s-86.125 192-192 192c-44.749 0-88.31-15.718-122.688-44.31-0.464-0.394-1.043-0.509-1.542-0.838l55.542-55.539c4.563-4.563 5.939-11.469 3.469-17.437-2.467-5.968-8.31-9.875-14.781-9.875h-128c-8.844 0-16 7.155-16 16v128c0 6.469 3.906 12.312 9.875 14.781 5.938 2.407 12.875 1.094 17.438-3.468l50.633-50.631c0.848 1.286 1.68 2.592 2.928 3.629 40.064 33.315 90.909 51.69 143.126 51.69 123.501 0 224-100.499 224-224zM393.376 544l-73.376 73.376v-73.376h73.376z" />
<glyph unicode="&#xe96a;" glyph-name="play" d="M93.199 899.062c-40.063 26.195-93.199-2.549-93.199-50.415v-801.296c0-47.863 53.136-76.607 93.199-50.411l612.753 400.645c36.364 23.775 36.364 77.055 0 100.83l-612.753 400.647z" />
</font>
</defs>
</svg>
