<?xml version="1.0" standalone="no"?>
<!DOCTYPE svg PUBLIC "-//W3C//DTD SVG 1.1//EN" "http://www.w3.org/Graphics/SVG/1.1/DTD/svg11.dtd" >
<svg xmlns="http://www.w3.org/2000/svg">
<metadata>Generated by IcoMoon</metadata>
<defs>
<font id="icomoon" horiz-adv-x="1024">
<font-face units-per-em="1024" ascent="960" descent="-64" />
<missing-glyph horiz-adv-x="1024" />
<glyph unicode="&#x20;" horiz-adv-x="512" d="" />
<glyph unicode="&#xe900;" glyph-name="check-light" d="M384 248.667l452 452 60-60-512-512-238 238 60 60z" />
<glyph unicode="&#xe901;" glyph-name="chart-line" horiz-adv-x="1103" d="M103.385 859.077v-758.15c0-30.161 21.539-51.696 51.692-51.696h896.004c27.995 0 51.688-23.694 51.688-51.696 0-30.153-23.694-51.688-51.688-51.688h-896.004c-86.154 0-155.077 68.923-155.077 155.081v758.15c0 28 21.539 51.692 51.692 51.692 28 0 51.692-23.692 51.692-51.692zM1018.77 615.693l-295.077-292.923c-19.384-21.539-51.692-21.539-71.077 0l-170.154 170.153-170.154-170.153c-21.538-21.539-53.846-21.539-73.23 0-21.539 19.384-21.539 51.692 0 71.077l206.769 206.769c8.615 10.769 21.538 15.077 36.615 15.077 12.923 0 25.846-4.308 36.615-15.077l170.154-170.154 256.307 256.308c19.385 21.539 51.696 21.539 73.232 0 19.385-19.384 19.385-51.692 0-71.077z" />
<glyph unicode="&#xe902;" glyph-name="users" horiz-adv-x="1280" d="M639.718 320c114.829 0 207.911 93.128 207.911 208 0 114.876-93.082 208-207.911 208-114.816 0-207.91-93.124-207.91-208 0-114.872 93.094-208 207.91-208zM639.718 672c79.354 0 143.911-64.598 143.911-144s-64.557-144-143.911-144c-79.352 0-143.91 64.598-143.91 144s64.56 144 143.91 144zM739.776 256h-199.55c-156.964 0-284.226-119.386-284.226-266.662 0-29.453 25.454-53.338 56.844-53.338h654.311c31.392 0 56.845 23.885 56.845 53.338 0 147.277-127.245 266.662-284.224 266.662zM320.3 0c6.044 106.816 102.376 192 219.926 192h199.55c117.549 0 213.882-85.184 219.923-192h-639.399zM1024 640c88.371 0 160 71.636 160 160s-71.629 160-160 160c-88.358 0-160-71.636-160-160s71.642-160 160-160zM1024 896c52.934 0 96-43.066 96-96s-43.066-96-96-96c-52.934 0-96 43.066-96 96s43.066 96 96 96zM256 640c88.368 0 160 71.636 160 160s-71.632 160-160 160c-88.36 0-160-71.636-160-160s71.64-160 160-160zM256 896c52.934 0 96-43.066 96-96s-43.066-96-96-96c-52.934 0-96 43.066-96 96s43.066 96 96 96zM1122.157 576h-130.157c-22.31 0-44.154-5-64.941-14.876-15.968-7.592-22.778-26.686-15.181-42.624 7.59-15.938 26.746-22.782 42.624-15.188 12.154 5.75 24.749 8.688 37.498 8.688h130.157c51.75 0 93.843-45.468 93.843-101.344v-26.656c0-17.688 14.31-32 32-32s32 14.312 32 32v26.656c0 91.156-70.81 165.344-157.843 165.344zM325.5 503.312c15.876-7.594 35.062-0.75 42.624 15.188 7.594 15.938 0.782 35.032-15.186 42.624-20.782 9.876-42.626 14.876-64.938 14.876h-130.156c-87.032 0-157.844-74.188-157.844-165.344v-26.656c0-17.688 14.312-32 32-32s32 14.312 32 32v26.656c0 55.876 42.094 101.344 93.844 101.344h130.156c12.75 0 25.344-2.938 37.5-8.688z" />
<glyph unicode="&#xe903;" glyph-name="comment-exclamation" horiz-adv-x="1170" d="M73.439 484.571c0 208.914 214.4 402.286 512 402.286s512.004-193.371 512.004-402.286c0-208.914-214.404-402.286-512.004-402.286-73.143 0-144 13.488-213.714 37.032-22.629 7.541-47.315 4.111-66.743-9.604-35.2-24.459-71.771-45.714-110.629-62.625l14.4-33.375-14.629 33.602c-24-10.518-49.142-19.661-74.742-26.288 1.142 2.055 2.514 4.118 3.657 5.939 32.685 54.177 51.657 112.457 58.742 174.402 2.286 21.029-4.8 40.459-16.914 54.63-56 67.2-91.429 143.771-91.429 228.571zM585.439 960c-323.428 0-585.143-213.029-585.143-475.429 0-106.514 44.8-199.086 108.343-275.427 0-0.234 0.229-0.234 0.229-0.461-5.943-51.653-21.715-99.423-48.686-144.223-14.857-24.686-30.857-47.543-49.6-66.289-10.286-10.511-13.486-26.288-7.771-39.775 5.714-13.48 18.971-22.396 33.829-22.396 65.6 0 131.657 20.341 186.515 44.112 43.886 19.2 84.8 42.745 123.2 69.712 0.457 0.234 1.143 0.461 1.6 0.234 76.343-25.6 155.2-40.916 237.485-40.916 323.427 0 585.147 213.029 585.147 475.429s-261.72 475.429-585.147 475.429zM585.439 777.143c-20.114 0-36.571-16.457-36.571-36.571v-292.571c0-20.114 16.457-36.571 36.571-36.571s36.571 16.457 36.571 36.571v292.571c0 20.114-16.457 36.571-36.571 36.571zM640.296 265.143c0 14.549-5.78 28.502-16.067 38.79s-24.241 16.067-38.79 16.067c-14.549 0-28.502-5.78-38.79-16.067s-16.067-24.241-16.067-38.79c0-14.549 5.78-28.502 16.067-38.788 10.288-10.291 24.241-16.069 38.79-16.069s28.502 5.778 38.79 16.069c10.288 10.285 16.067 24.239 16.067 38.788z" />
<glyph unicode="&#xe904;" glyph-name="solid-arrow-up" horiz-adv-x="878" d="M464.693 949.257c-14.171 14.171-37.486 14.171-51.657 0l-402.285-402.285c-14.171-14.171-14.171-37.486 0-51.657s37.486-14.171 51.657 0l339.886 339.885v-862.629c0-20.114 16.457-36.571 36.571-36.571s36.571 16.457 36.571 36.571v862.629l339.888-339.885c14.168-14.171 37.486-14.171 51.653 0 14.175 14.171 14.175 37.485 0 51.656l-402.284 402.286z" />
<glyph unicode="&#xe905;" glyph-name="solid-arrow-down" horiz-adv-x="878" d="M413.022-53.255c14.171-14.175 37.486-14.175 51.657 0l402.284 402.284c14.175 14.171 14.175 37.485 0 51.656-14.168 14.171-37.486 14.171-51.653 0l-339.888-339.882v862.625c0 20.114-16.457 36.571-36.571 36.571s-36.571-16.457-36.571-36.571v-862.625l-339.886 339.882c-14.171 14.171-37.486 14.171-51.657 0s-14.171-37.485 0-51.656l402.286-402.284z" />
<glyph unicode="&#xe906;" glyph-name="arrow-chevron-up" horiz-adv-x="951" d="M549.043 938.515c-28.572 28.571-74.971 28.571-103.543 0l-365.714-365.715c-28.571-28.571-28.571-74.971 0-103.542s74.971-28.572 103.543 0l240.914 241.142v-701.257c0-40.455 32.685-73.143 73.143-73.143s73.143 32.688 73.143 73.143v701.257l240.911-240.914c28.577-28.571 74.971-28.571 103.548 0 28.57 28.572 28.57 74.971 0 103.543l-365.716 365.714-0.228-0.229z" />
<glyph unicode="&#xe907;" glyph-name="arrow-chevron-down" horiz-adv-x="951" d="M431.029-42.518c28.571-28.57 74.971-28.57 103.542 0l365.715 365.718c28.57 28.571 28.57 74.971 0 103.542s-74.971 28.572-103.541 0l-240.916-241.142v701.257c0 40.457-32.686 73.143-73.143 73.143s-73.143-32.686-73.143-73.143v-701.257l-240.914 240.914c-28.572 28.571-74.971 28.571-103.543 0s-28.572-74.971 0-103.543l365.714-365.716 0.229 0.227z" />
<glyph unicode="&#xe908;" glyph-name="sort-arrow-up" horiz-adv-x="1365" d="M110.633 64h1058.736c98.412 0 147.548 119.1 78.157 188.493l-529.312 547.079c-21.629 21.624-49.893 32.428-78.104 32.428-28.216 0-56.373-10.804-77.78-32.428l-529.853-547.079c-69.392-69.393-20.256-188.493 78.156-188.493z" />
<glyph unicode="&#xe909;" glyph-name="sort-arrow-down" horiz-adv-x="1365" d="M1169.369 832h-1058.736c-98.412 0-147.548-119.091-78.156-188.484l529.853-547.081c21.407-21.623 49.563-32.435 77.78-32.435 28.211 0 56.475 10.812 78.104 32.435l529.312 547.081c69.391 69.393 20.255 188.484-78.157 188.484z" />
<glyph unicode="&#xe90a;" glyph-name="solid-calendar-day" d="M64 32c0-53.001 43-96 96-96h704c53.001 0 96 42.999 96 96v544h-896v-544zM192 416c0 17.5 14.5 32 32 32h192c17.5 0 32-14.5 32-32v-192c0-17.5-14.5-32-32-32h-192c-17.5 0-32 14.5-32 32v192zM864 832h-96v64c0 35.2-28.8 64-64 64s-64-28.8-64-64v-64h-256v64c0 35.2-28.8 64-64 64s-64-28.8-64-64v-64h-96c-53.020 0-96-42.98-96-96v-96h896v96c0 53.020-42.982 96-96 96z" />
<glyph unicode="&#xe90b;" glyph-name="solid-arrow-right-arrow-left" d="M64 608h741.5l-114.749-114.75c-25-25-25-65.499 0-90.499 12.5-12.5 28.873-18.75 45.25-18.75s32.75 6.25 45.25 18.75l224.003 224c24.994 25 24.994 65.499 0 90.499l-224.003 224c-25 25-65.499 25-90.499 0s-25-65.5 0-90.5l114.749-114.75h-741.5c-35.376 0-64-28.624-64-64s28.624-64 64-64zM960 288h-741.5l114.749 114.75c25 25 25 65.499 0 90.499s-65.499 25-90.499 0l-224-224c-25-25-25-65.499 0-90.499l224-224.003c12.5-12.501 28.873-18.748 45.25-18.748s32.75 6.246 45.25 18.748c25 25.003 25 65.502 0 90.505l-114.749 114.748h741.5c35.379 0 64 28.624 64 64s-28.621 64-64 64z" />
<glyph unicode="&#xe90c;" glyph-name="solid-phone-arrow-down-left" d="M986.189 257.505l-216.972 93c-25.562 11.064-55.592 3.626-72.968-17.936l-88.094-107.626c-138.5 68-251.094 180.562-319.061 319l107.656 88.192c21.5 17.562 28.844 47.311 17.968 72.874l-93.062 217.125c-12.188 27.812-42.344 43.062-71.718 36.25l-201.5-46.5c-28.5-6.5-48.438-31.564-48.438-60.876 0-504.565 410.467-915.008 914.97-915.008 29.338 0 54.409 19.942 60.937 48.444l46.498 201.562c6.75 29.187-8.405 59.5-36.215 71.5zM639.999 512.001h192c35.346 0 64.001 28.656 64.001 64s-28.655 64-64.001 64h-37.501l210.754 210.749c24.994 25 24.994 65.5 0 90.5-25.003 25-65.502 25-90.505 0l-210.749-210.75v37.5c0 35.344-28.656 64-64 64s-64-28.656-64-64v-191.999c0-35.344 28.656-64 64-64z" />
<glyph unicode="&#xe90d;" glyph-name="solid-phone-arrow-up-right" d="M986.189 257.505l-216.972 93c-25.562 11.062-55.592 3.624-72.968-17.938l-88.094-107.624c-138.5 68-251.094 180.562-319.061 319l107.656 88.189c21.5 17.564 28.844 47.314 17.968 72.876l-93.062 217.123c-12.188 27.814-42.344 43.064-71.718 36.25l-201.5-46.5c-28.5-6.5-48.438-31.562-48.438-60.874 0-504.565 410.467-915.008 914.97-915.008 29.338 0 54.409 19.942 60.937 48.444l46.498 201.562c6.75 29.188-8.405 59.5-36.215 71.5zM960 960h-192.001c-35.344 0-64-28.656-64-64s28.656-64 64-64h37.5l-210.749-210.749c-25-25-25-65.5 0-90.5s65.499-24.999 90.499 0l210.751 210.75v-37.501c0-35.343 28.655-63.999 64-63.999s64 28.656 64 63.999v192c0 35.344-28.655 64-64 64z" />
<glyph unicode="&#xe90e;" glyph-name="circle-question" d="M553.077 730.256h-121.538c-75.065 0-136.154-61.058-136.154-136.121v-19.776c0-18.142 14.679-32.821 32.821-32.821s32.82 14.679 32.82 32.821v19.776c0 38.878 31.602 70.48 70.513 70.48h121.538c38.911 0 70.513-31.602 70.513-70.48 0-25.61-13.91-49.231-35-60.962l-123.975-61.987c-23.397-13.044-37.949-37.756-37.949-64.552v-37.403c0-18.141 14.679-32.821 32.82-32.821s32.821 14.679 32.821 32.821v37.403c0 2.983 1.602 5.738 2.95 6.507l123.91 61.987c43.204 23.943 70.064 69.551 70.064 119.007 0 75.063-61.089 136.121-136.154 136.121zM459.487 287.179c-27.187 0-49.231-22.043-49.231-49.231s22.044-49.231 49.231-49.231c27.188 0 49.231 22.044 49.231 49.231s-22.043 49.231-49.231 49.231zM492.308 960c-271.896 0-492.308-220.412-492.308-492.308s220.412-492.308 492.308-492.308c271.896 0 492.308 220.412 492.308 492.308s-220.412 492.308-492.308 492.308zM492.308 41.023c-235.263 0-426.667 191.406-426.667 426.669s191.403 426.667 426.667 426.667c235.263 0 426.669-191.403 426.669-426.667s-191.406-426.669-426.669-426.669z" />
<glyph unicode="&#xe90f;" glyph-name="triangle-exclamation-warning-alert" horiz-adv-x="1170" d="M585.15 210.286c-30.293 0-54.853-24.554-54.853-54.857 0-30.296 24.56-54.857 54.853-54.857s54.853 24.561 54.853 54.857c0 30.303-24.56 54.857-54.853 54.857zM585.15 301.714c20.212 0 36.569 16.357 36.569 36.571v329.143c0 20.215-16.357 36.571-36.569 36.571s-36.569-16.356-36.569-36.571v-329.143c0-20.214 16.357-36.571 36.569-36.571zM1152.783 124.928l-456.892 772.501c-23.033 39.106-64.315 62.501-110.491 62.571h-0.215c-46.174 0-87.6-23.358-110.811-62.535l-456.894-772.574c-22.962-38.788-23.319-85.358-0.962-124.57 22.997-40.287 64.743-64.322 111.705-64.322h914.034c46.892 0 88.561 24.071 111.565 64.395 22.316 39.212 21.928 85.753-1.039 124.533zM1090.253 36.608c-9.787-17.181-27.75-27.465-47.996-27.465h-914.034c-20.356 0-38.355 10.247-48.176 27.429-9.321 16.355-9.177 34.962 0.359 51.105l456.891 772.539c9.893 16.679 27.783 26.642 47.925 26.642 0 0 0.037 0 0.071 0 20.034-0.037 37.819-9.964 47.639-26.608l456.927-772.609c9.538-16.106 9.713-34.714 0.395-51.032z" />
<glyph unicode="&#xe910;" glyph-name="call-phone" d="M1022.406 186.003l-46.502-201.562c-6.528-28.506-31.59-48.442-60.934-48.442-504.502 0-914.97 410.443-914.97 915.008 0 29.314 19.938 54.376 48.438 60.876l201.5 46.5c29.373 6.814 59.53-8.436 71.718-36.25l93.062-217.126c10.876-25.564 3.532-55.314-17.968-72.876l-107.656-88.188c67.967-138.44 180.561-251.004 319.061-319.004l88.095 107.626c17.376 21.562 47.405 29 72.966 17.938l216.973-93c27.808-12 42.963-42.31 36.218-71.501z" />
<glyph unicode="&#xe911;" glyph-name="tooltip-info" d="M512 960c-282.771 0-512-229.229-512-512s229.229-512 512-512c282.771 0 512 229.229 512 512s-229.229 512-512 512zM512 4.267c-244.675 0-443.733 199.059-443.733 443.733s199.059 443.733 443.733 443.733c244.675 0 443.733-199.059 443.733-443.733s-199.059-443.733-443.733-443.733zM512 601.6c28.275 0 51.2 22.921 51.2 51.2 0 28.275-22.925 51.2-51.2 51.2s-51.2-22.925-51.2-51.2c0-28.279 22.925-51.2 51.2-51.2zM614.4 243.2h-68.267v238.933c0 18.867-15.266 34.133-34.133 34.133h-68.267c-18.867 0-34.133-15.266-34.133-34.133s15.266-34.133 34.133-34.133h34.133v-204.8h-68.267c-18.85 0-34.133-15.279-34.133-34.133 0-18.85 15.283-34.133 34.133-34.133h204.8c18.85 0 34.133 15.283 34.133 34.133 0 18.854-15.283 34.133-34.133 34.133z" />
<glyph unicode="&#xe912;" glyph-name="folder-plus" horiz-adv-x="1170" d="M73.143 813.714v-731.429c0-41.143 32-73.143 73.143-73.143h877.714c38.853 0 73.143 32 73.143 73.143v585.143c0 38.857-34.289 73.143-73.143 73.143h-358.857c-38.857 0-75.429 13.714-102.857 41.143l-82.286 82.286c-13.714 13.714-32 22.857-50.286 22.857h-283.429c-41.143 0-73.143-34.286-73.143-73.143zM146.286 960h283.429c38.857 0 75.429-16 102.857-43.429l82.286-82.286c13.714-13.714 32-20.571 50.286-20.571h358.857c80.004 0 146.286-66.286 146.286-146.286v-585.143c0-82.286-66.282-146.286-146.286-146.286h-877.714c-82.286 0-146.286 64-146.286 146.286v731.429c0 80 64 146.286 146.286 146.286zM548.571 155.429v182.857h-182.857c-20.571 0-36.571 16-36.571 36.571 0 18.286 16 36.571 36.571 36.571h182.857v182.857c0 18.286 16 36.571 36.571 36.571 18.286 0 36.571-18.286 36.571-36.571v-182.857h182.857c18.286 0 36.571-18.286 36.571-36.571 0-20.571-18.286-36.571-36.571-36.571h-182.857v-182.857c0-20.568-18.286-36.571-36.571-36.571-20.571 0-36.571 16.004-36.571 36.571z" />
<glyph unicode="&#xe913;" glyph-name="envelope-message-inbox" d="M512 351.923c-16.531 0-33.062 5.482-47.155 16.467l-208.845 162.461v-226.851c0-26.509 21.49-48 48-48h416c26.509 0 48 21.491 48 48v226.851l-208.845-162.461c-14.093-10.986-30.624-16.467-47.155-16.467zM272.287 558.694l212.183-165.053c16.192-12.595 38.867-12.595 55.059 0l212.182 165.053c10.278 7.994 16.288 20.285 16.288 33.306 0 26.509-21.491 48-48 48h-416c-26.51 0-48-21.491-48-48 0-13.021 6.010-25.312 16.287-33.306z" />
<glyph unicode="&#xe914;" glyph-name="bookmark-slash-outline" horiz-adv-x="1252" d="M967.111 817.778v-494.222l-56.889 44.447v449.775c0 14.222-14.222 28.444-28.444 28.444h-512c-16 0-28.444-14.222-28.444-28.444v-1.778l-49.778 39.111c14.222 28.444 44.444 48 78.222 48h512c46.222 0 85.333-39.111 85.333-85.333zM341.333 64l268.447 179.553c8.886 5.336 21.333 5.336 30.219 0l270.222-179.553v14.222l56.889-46.222c0-23.114-17.778-39.111-40.892-39.111-7.111 0-14.222 1.775-21.333 5.336l-279.108 186.664-280.889-186.664c-7.111-3.561-14.222-5.336-21.333-5.336-23.111 0-39.111 15.997-39.111 39.111v540.444l56.889-46.222v-462.222zM101.333 896l1082.667-853.333c10.667-8.886 14.222-28.444 3.556-39.111-8.886-12.442-26.67-16.003-39.111-5.33l-1080.889 853.33c-12.444 8.889-16 28.444-5.333 39.111 8.889 12.444 28.444 16 39.111 5.333z" />
<glyph unicode="&#xe915;" glyph-name="message-exclamation" horiz-adv-x="945" d="M383.885 152.903v-29.538l132.923 99.692c14.769 11.077 33.231 18.462 53.539 18.462h256.615c14.769 0 29.538 12.923 29.538 29.538v531.692c0 14.769-14.769 29.538-29.538 29.538h-708.923c-16.616 0-29.538-14.769-29.538-29.538v-531.692c0-16.616 12.923-29.538 29.538-29.538h177.231c48 0 88.615-40.615 88.615-88.615zM382.039 10.749l-9.23-5.537-31.385-24.001c-9.231-7.381-20.308-7.381-31.385-3.694-9.231 5.545-14.769 14.769-14.769 27.695v147.692h-177.231c-66.462 0-118.154 51.692-118.154 118.154v531.692c0 64.615 51.692 118.154 118.154 118.154h708.923c64.614 0 118.154-53.539 118.154-118.154v-531.692c0-66.462-53.539-118.154-118.154-118.154h-256.615l-186.462-140.304-1.846-1.851zM472.5 773.211c24 0 44.308-20.307 44.308-44.308v-206.769c0-25.846-20.307-44.308-44.308-44.308-25.846 0-44.308 18.462-44.308 44.308v206.769c0 24 18.462 44.308 44.308 44.308zM531.577 359.673c0-33.231-27.692-59.077-59.077-59.077-33.231 0-59.077 25.846-59.077 59.077 0 31.385 25.846 59.077 59.077 59.077 31.385 0 59.077-27.692 59.077-59.077z" />
<glyph unicode="&#xe916;" glyph-name="chart-column" horiz-adv-x="1103" d="M51.692 910.769c28 0 51.692-23.692 51.692-51.692v-758.15c0-30.161 21.539-51.696 51.692-51.696h896.004c27.995 0 51.688-23.694 51.688-51.696 0-30.153-23.694-51.688-51.688-51.688h-896.004c-86.154 0-155.077 68.923-155.077 155.081v758.15c0 28 21.539 51.692 51.692 51.692zM361.846 497.231c28 0 51.692-23.692 51.692-51.692v-172.308c0-30.154-23.692-51.692-51.692-51.692-30.154 0-51.692 21.539-51.692 51.692v172.308c0 28 21.539 51.692 51.692 51.692zM620.308 652.308v-379.077c0-30.154-23.692-51.692-51.692-51.692-30.154 0-51.692 21.539-51.692 51.692v379.077c0 28 21.539 51.692 51.692 51.692 28 0 51.692-23.692 51.692-51.692zM775.385 566.154c27.999 0 51.692-23.692 51.692-51.692v-241.231c0-30.154-23.694-51.692-51.692-51.692-30.154 0-51.692 21.539-51.692 51.692v241.231c0 28 21.539 51.692 51.692 51.692zM1033.846 790.154v-516.923c0-30.154-23.694-51.692-51.688-51.692-30.161 0-51.696 21.539-51.696 51.692v516.923c0 28 21.536 51.692 51.696 51.692 27.995 0 51.688-23.692 51.688-51.692z" />
<glyph unicode="&#xe917;" glyph-name="folder-xmark" horiz-adv-x="1170" d="M73.143 813.714v-731.429c0-41.143 32-73.143 73.143-73.143h877.714c38.853 0 73.143 32 73.143 73.143v585.143c0 38.857-34.289 73.143-73.143 73.143h-358.857c-38.857 0-75.429 13.714-102.857 41.143l-82.286 82.286c-13.714 13.714-32 22.857-50.286 22.857h-283.429c-41.143 0-73.143-34.286-73.143-73.143zM146.286 960h283.429c38.857 0 75.429-16 102.857-43.429l82.286-82.286c13.714-13.714 32-20.571 50.286-20.571h358.857c80.004 0 146.286-66.286 146.286-146.286v-585.143c0-82.286-66.282-146.286-146.286-146.286h-877.714c-82.286 0-146.286 64-146.286 146.286v731.429c0 80 64 146.286 146.286 146.286zM411.429 546.286c13.714 13.714 38.857 13.714 52.571 0l121.143-121.143 118.857 121.143c13.714 13.714 38.853 13.714 52.575 0 13.707-13.714 13.707-38.857 0-52.571l-121.147-118.857 121.147-121.143c13.707-13.714 13.707-38.857 0-52.571-13.722-13.714-38.861-13.714-52.575 0l-118.857 121.143-121.143-121.143c-13.714-13.714-38.857-13.714-52.571 0s-13.714 38.857 0 52.571l121.143 121.143-121.143 118.857c-13.714 13.714-13.714 38.857 0 52.571z" />
<glyph unicode="&#xe918;" glyph-name="user-tie" horiz-adv-x="896" d="M656.454 334.746c-2.989 0.972-6.035 1.434-9.043 1.434-12.339 0-24.068-7.738-29.237-19.572l-70.672-161.882-55.090 165.274h19.582c17.688 0 32 14.312 32 32s-14.312 32-32 32h-128c-17.686 0-32-14.312-32-32s14.314-32 32-32h19.582l-55.088-165.274-70.672 161.882c-5.168 11.83-16.9 19.568-29.24 19.568-3.006 0-6.046-0.458-9.043-1.43-139.926-45.441-240.918-177.178-239.52-332.589 0.332-37.011 32.302-66.157 69.308-66.157h757.347c37.005 0 68.973 29.146 69.306 66.157 1.402 155.411-99.584 287.149-239.52 332.589zM69.322 0c-3.022 0-5.088 2.125-5.312 2.733-1.022 113.805 65.114 215.014 167.31 260.416l114.882-263.149h-276.88zM479.994 0.096h-64l-29.234 66.957 61.234 183.757 61.236-183.757-29.236-66.957zM826.669 0h-276.881l114.884 263.149c102.189-45.395 168.333-146.605 167.328-260.346-0.243-0.678-2.31-2.803-5.331-2.803zM447.994 448c141.5 0 255.999 114.5 255.999 256s-114.499 256-255.999 256c-141.5 0-256-114.5-256-256s114.5-256 256-256zM447.994 896c105.872 0 192-86.128 192-192 0-105.868-86.128-192-192-192s-192 86.132-192 192c0 105.872 86.13 192 192 192z" />
<glyph unicode="&#xe919;" glyph-name="clock" horiz-adv-x="910" d="M853.333 448c0 142.222-76.447 272-199.111 343.111-124.444 72.889-275.556 72.889-398.222 0-124.444-71.111-199.111-200.889-199.111-343.111 0-143.997 74.667-273.778 199.111-344.889 122.667-72.892 273.778-72.892 398.222 0 122.664 71.111 199.111 200.892 199.111 344.889zM0 448c0 161.778 85.333 311.111 227.556 392.889 140.444 81.778 312.889 81.778 455.111 0 140.447-81.778 227.556-231.111 227.556-392.889 0-163.556-87.108-312.889-227.556-394.667-142.222-81.778-314.667-81.778-455.111 0-142.222 81.778-227.556 231.111-227.556 394.667zM426.667 704c0 14.222 12.444 28.444 28.444 28.444 14.222 0 28.444-14.222 28.444-28.444v-241.778l156.444-104.892c14.222-8.886 17.778-26.664 8.886-39.105-8.886-14.222-26.664-17.783-39.105-8.892l-170.67 113.778c-8.889 5.333-12.444 14.222-12.444 24.889v256z" />
<glyph unicode="&#xe91a;" glyph-name="comment" horiz-adv-x="1195" d="M292.305 145.778c28.889 22.221 66.667 26.664 100 15.553 57.777-22.221 124.444-33.331 195.556-33.331 275.553 0 462.222 177.778 462.222 355.556 0 175.556-186.67 355.556-462.222 355.556-277.778 0-462.222-180-462.222-355.556 0-71.111 26.667-139.998 77.777-199.999 20-20.002 28.889-48.89 26.667-77.778-2.222-39.999-13.333-77.778-24.444-111.11 37.778 17.778 68.888 37.774 86.666 51.109zM65.639 56.889c4.444 4.443 6.667 11.11 11.111 17.778 22.223 35.556 42.222 84.446 46.667 139.998-66.666 75.56-104.444 166.667-104.444 268.891 0 253.333 253.333 462.222 568.889 462.222 313.333 0 568.889-208.889 568.889-462.222 0-255.556-255.556-462.222-568.889-462.222-84.445 0-162.223 13.335-233.334 37.78-24.444-17.778-68.888-44.447-120-66.668-33.333-15.553-71.111-28.888-111.111-35.556-2.222 0-4.444-2.224-4.444-2.224-11.111-2.219-20-2.219-31.111-4.443-11.111 0-22.222-2.224-35.555-2.224s-26.667 8.892-31.111 22.226c-6.667 13.329-2.222 28.888 6.667 39.999 8.889 8.886 17.778 17.778 24.444 28.888 4.444 6.667 8.889 11.11 11.111 15.553v2.224h2.222z" />
<glyph unicode="&#xe91b;" glyph-name="graduation-cap" horiz-adv-x="1479" d="M768 839.111c-6.667 0-11.11-2.222-17.778-4.444l-484.444-173.334 100-37.778c11.111 6.666 22.222 11.111 33.333 15.556l355.554 133.333c17.778 6.667 40.004-2.222 46.666-22.222 6.667-17.778-2.219-37.778-22.221-44.444l-313.333-117.778 284.444-102.223c6.667-2.222 11.11-2.222 17.778-2.222 4.443 0 11.11 0 15.553 2.222l484.449 175.556-484.449 173.334c-4.443 2.222-11.11 4.444-15.553 4.444zM90.222 610.222c-20 6.667-33.333 26.667-33.333 51.111 0 22.222 13.334 42.222 33.333 48.889l624.444 224.444c15.553 6.667 33.331 11.111 53.333 11.111 17.778 0 35.556-4.444 51.109-11.111l624.447-224.444c20.002-6.667 35.556-26.667 35.556-48.889 0-24.445-15.553-44.444-35.556-51.111l-624.447-224.447c-15.553-6.662-33.331-11.11-51.109-11.11-20.002 0-37.78 4.449-53.333 11.11l-377.777 135.558c-60-53.333-97.778-126.667-102.223-208.888 13.334-31.113 22.222-62.225 28.889-93.332 13.334-60.001 24.445-146.671 4.445-242.222-2.222-8.892-6.667-17.783-15.556-22.226s-17.778-6.667-26.667-4.443l-142.222 35.556c-13.333 2.224-22.223 11.11-26.667 22.221-2.222 11.11 0 24.445 6.667 33.337 17.778 26.664 35.556 55.552 48.889 84.44 26.667 51.115 51.111 115.558 51.111 180.002v2.224c2.222 91.109 40 175.553 100 239.998l-173.333 62.222zM1159.111 432.444l35.556-322.222c0-80.003-191.113-160-426.667-160-235.555 0-426.667 79.997-426.667 160l33.333 322.222 102.222-37.778-26.667-266.667c8.889-8.886 26.667-17.778 53.333-28.888 64.445-24.445 157.778-42.223 264.445-42.223s199.999 17.778 262.224 42.223c26.664 11.11 44.442 20.002 53.333 28.888l-26.67 266.667 102.224 37.778zM1094.667 136.886v0zM439.111 136.886v0z" />
<glyph unicode="&#xe91c;" glyph-name="home-filled" horiz-adv-x="1092" d="M1081.87 430.933c0-33.6-28.003-59.733-59.733-59.733h-59.733l1.864-298.667c0-5.598 0-11.203 0-14.937v-31.73c0-41.069-33.601-74.663-74.67-74.663h-29.86c-3.734 0-5.605 0-7.468 1.864-1.871-1.864-5.605-1.864-7.468-1.864l-59.733 1.864h-44.797c-42.94 0-74.67 31.73-74.67 74.67v164.263c0 31.73-28 59.733-59.733 59.733h-119.467c-33.6 0-59.733-28.003-59.733-59.733v-164.263c0-42.94-33.6-74.67-74.667-74.67h-104.533c-3.734 0-5.6 0-9.333 0-1.866 0-3.734 0-5.6 0h-29.867c-42.934 0-74.667 31.73-74.667 74.67v209.060c0 0 0 1.871 0 3.734v130.669h-59.733c-33.6 0-59.733 26.133-59.733 59.733 0 16.8 5.6 31.733 18.667 44.8l477.867 418.133c13.066 13.067 28 14.933 41.066 14.933s28-3.733 39.2-13.067l476.002-420c14.93-13.067 22.398-28 20.535-44.8z" />
<glyph unicode="&#xe91d;" glyph-name="hourglass-half" horiz-adv-x="768" d="M64 960h640c33.997 0 64-30 64-64 0-36-30.003-64-64-64v-22c0-86-33.997-168-94-228l-136-134 136-136c60.003-60 94-142.003 94-225.997v-22.003c33.997 0 64-30.003 64-64 0-36-30.003-64-64-64h-640c-36 0-64 28-64 64 0 33.997 28 64 64 64v22.003c0 83.994 32 165.997 92 225.997l136 136-136 134c-60 60-92 142-92 228v22c-36 0-64 28-64 64 0 34 28 64 64 64zM192 810c0-38 10-76 32-106h320c20 30 32 68 32 106v22h-384v-22zM224 192l320-1.997c-8 11.994-16 21.997-26 29.997l-134 136-136-136c-10-8-18-18.003-24-28z" />
<glyph unicode="&#xe91e;" glyph-name="lightbulb" horiz-adv-x="768" d="M576.927 462c27.996 40 45.998 90 45.998 146 0 140-116 256-256 256-142 0-256-116-256-256 0-56 16-106 44-146 8-12 16-23.999 26-36.001 26-35.999 56-77.998 80-119.997 20-38.001 32-78.003 36-114.002h-96c-6 24.003-12 45.998-24 67.999-20 35.999-44 70.001-70 104.003-10 13.998-20 27.996-30 41.999-40 57.999-62 125.999-62 201.999 0 194 156 352 352 352 194.002 0 352-158 352-352 0-76-23.997-144-64-201.999-9.999-14.003-19.999-28.001-29.998-41.999-25.999-34.002-50.002-68.004-70.001-104.003-12.001-22.001-18.002-43.996-24.003-67.999h-95.998c4 35.999 16 76.001 36 114.002 24 41.999 53.998 83.999 80.003 119.997 9.999 12.001 17.997 24.001 25.999 36.001zM366.925 704c-54 0-96-44-96-96 0-18-16-32-32-32-18 0-32 14-32 32 0 88 70 160 160 160 16 0 32-16 32-32 0-18-16-32-32-32zM366.925-64c-90 0-160 70.001-160 160v32h320v-32c0-89.999-72-160-160-160z" />
<glyph unicode="&#xe91f;" glyph-name="active-nav-item" d="M432 960h32c70.692 0 128-57.308 128-128v-768c0-70.691-57.308-128-128-128h-32v1024z" />
<glyph unicode="&#xe920;" glyph-name="checkbox" d="M170.667 960c-94.257 0-170.667-76.41-170.667-170.667v-682.667c0-94.259 76.41-170.667 170.667-170.667h682.667c94.259 0 170.667 76.407 170.667 170.667v682.667c0 94.257-76.407 170.667-170.667 170.667h-682.667zM170.667 106.667v682.667h682.667v-682.667h-682.667zM170.667 960c-94.257 0-170.667-76.41-170.667-170.667v-682.667c0-94.259 76.41-170.667 170.667-170.667h682.667c94.259 0 170.667 76.407 170.667 170.667v682.667c0 94.257-76.407 170.667-170.667 170.667h-682.667zM785.493 694.191l57.941-58.003c6.4-6.397 9.899-14.842 9.899-23.201 0-9.041-3.157-17.742-9.899-24.566l-386.645-386.569c-13.227-13.135-34.56-13.135-47.787 0l-228.523 228.599c-6.741 6.738-9.813 15.439-9.813 24.31 0 8.53 3.413 16.888 9.813 23.286l57.941 57.917c6.571 6.568 15.275 9.894 23.893 9.894s17.237-3.326 23.808-9.809l146.773-146.883 304.896 305.025c6.571 6.568 15.189 9.809 23.893 9.809 8.619 0 17.237-3.241 23.808-9.809z" />
<glyph unicode="&#xe921;" glyph-name="jump-backward-15" d="M347.321 758.906c-10.059 10.059-10.059 26.519 0 36.577l146.309 146.309c10.059 10.059 26.521 10.059 36.577 0 10.061-10.059 10.061-26.518 0-36.577l-105.845-105.845c119.218 29.604 250.439-2.172 343.597-95.33 141.394-141.394 141.394-370.687 0-512.081s-370.687-141.394-512.081 0c-91.329 91.331-123.677 219.233-97.044 336.625 4.343 19.431 28.119 24.918 42.178 10.859 6.858-6.858 9.373-16.689 7.43-26.176-21.261-99.443 6.744-207.46 84.013-284.731 121.162-121.16 317.767-121.16 438.926 0 121.165 121.165 121.165 317.765 0 438.927-81.27 81.27-196.26 108.017-299.818 80.356l98.643-98.644c10.061-10.059 10.061-26.519 0-36.577-10.056-10.059-26.518-10.059-36.577 0l-146.309 146.309zM374.33 348.431c-5.020 0-8.979 1.321-11.875 3.968-2.703 2.831-4.055 6.61-4.055 11.331 0 4.91 1.352 8.591 4.055 11.044 2.896 2.458 6.855 3.686 11.875 3.686h32.44v139.081h17.958l-42.578-25.21c-3.668-2.078-7.144-2.927-10.427-2.55-3.089 0.567-5.793 1.889-8.11 3.966-2.124 2.266-3.572 4.91-4.345 7.931s-0.579 6.043 0.58 9.064c1.352 3.21 3.862 5.854 7.53 7.931l39.971 23.511c3.862 2.266 7.724 4.154 11.586 5.665 3.862 1.699 7.434 2.549 10.717 2.549 4.055 0 7.434-1.133 10.138-3.399 2.703-2.077 4.055-5.571 4.055-10.481v-158.060h29.544c5.021 0 8.882-1.229 11.586-3.686 2.896-2.452 4.345-6.134 4.345-11.044s-1.448-8.689-4.345-11.331c-2.703-2.647-6.565-3.968-11.586-3.968h-99.059zM591.452 345.6c-10.235 0-20.664 1.321-31.283 3.968-10.619 2.642-20.372 6.702-29.256 12.18-3.666 2.263-6.175 4.905-7.526 7.931-1.162 3.21-1.449 6.323-0.87 9.344 0.773 3.21 2.222 5.857 4.342 7.931 2.319 2.268 5.023 3.589 8.11 3.968 3.287 0.379 6.856-0.471 10.716-2.55 7.148-3.963 14.387-6.989 21.724-9.062 7.337-2.079 15.16-3.118 23.465-3.118 8.11 0 15.058 1.418 20.854 4.25 5.791 2.831 10.235 6.799 13.322 11.899 3.087 5.094 4.634 11.044 4.634 17.843 0 10.578-3.282 19.072-9.846 25.492-6.569 6.61-15.544 9.917-26.936 9.917-6.18 0-12.165-1.039-17.961-3.118-5.791-1.889-11.489-5.289-17.091-10.199-1.736-1.51-3.958-3.021-6.661-4.531-2.703-1.321-5.596-1.981-8.689-1.981-4.828 0-8.494 1.229-11.003 3.681-2.514 2.458-3.768 5.857-3.768 10.199v92.627c0 5.098 1.352 8.97 4.055 11.614 2.898 2.833 6.953 4.249 12.165 4.249h95.293c5.212 0 9.17-1.322 11.873-3.966 2.898-2.455 4.347-6.137 4.347-11.047 0-4.721-1.449-8.403-4.347-11.047-2.703-2.644-6.661-3.966-11.873-3.966h-75.31v-63.451h-9.554c5.018 6.61 11.679 11.708 19.983 15.297s17.377 5.382 27.228 5.382c12.938 0 24.136-2.738 33.597-8.215 9.656-5.287 17.091-12.747 22.303-22.376 5.407-9.441 8.11-20.49 8.11-33.142 0-13.030-2.995-24.55-8.98-34.56-5.985-9.82-14.577-17.562-25.779-23.229-11.003-5.473-24.136-8.212-39.388-8.212z" />
<glyph unicode="&#xe922;" glyph-name="jump-forward-15" d="M676.572 758.857c10.056 10.057 10.056 26.514 0 36.571l-146.289 146.286c-10.056 10.057-26.512 10.057-36.569 0s-10.057-26.514 0-36.571l105.827-105.828c-119.199 29.6-250.399-2.171-343.542-95.314-141.371-141.371-141.371-370.627 0-512s370.627-141.373 512 0c91.315 91.315 123.658 219.197 97.029 336.571-4.342 19.428-28.114 24.914-42.173 10.857-6.856-6.857-9.37-16.686-7.429-26.171 21.258-99.428-6.743-207.429-83.999-284.685-121.144-121.144-317.713-121.144-438.856 0s-121.143 317.713 0 438.856c81.257 81.257 196.228 108 299.771 80.343l-98.629-98.629c-10.057-10.057-10.057-26.514 0-36.571s26.513-10.057 36.569 0l146.289 146.286zM374.33 348.431c-5.020 0-8.979 1.321-11.875 3.968-2.703 2.831-4.055 6.61-4.055 11.331 0 4.91 1.352 8.591 4.055 11.044 2.896 2.458 6.855 3.686 11.875 3.686h32.44v139.081h17.958l-42.578-25.21c-3.668-2.078-7.144-2.927-10.427-2.55-3.089 0.567-5.793 1.889-8.11 3.966-2.124 2.266-3.572 4.91-4.345 7.931s-0.579 6.043 0.58 9.064c1.352 3.21 3.862 5.854 7.53 7.931l39.971 23.511c3.862 2.266 7.724 4.154 11.586 5.665 3.862 1.699 7.434 2.549 10.717 2.549 4.055 0 7.434-1.133 10.138-3.399 2.703-2.077 4.055-5.571 4.055-10.481v-158.060h29.544c5.021 0 8.882-1.229 11.586-3.686 2.896-2.452 4.345-6.134 4.345-11.044s-1.448-8.689-4.345-11.331c-2.703-2.647-6.565-3.968-11.586-3.968h-99.059zM591.452 345.6c-10.235 0-20.664 1.321-31.283 3.968-10.619 2.642-20.372 6.702-29.256 12.18-3.666 2.263-6.175 4.905-7.526 7.931-1.162 3.21-1.449 6.323-0.87 9.344 0.773 3.21 2.222 5.857 4.342 7.931 2.319 2.268 5.023 3.589 8.11 3.968 3.287 0.379 6.856-0.471 10.716-2.55 7.148-3.963 14.387-6.989 21.724-9.062 7.337-2.079 15.16-3.118 23.465-3.118 8.11 0 15.058 1.418 20.854 4.25 5.791 2.831 10.235 6.799 13.322 11.899 3.087 5.094 4.634 11.044 4.634 17.843 0 10.578-3.282 19.072-9.846 25.492-6.569 6.61-15.544 9.917-26.936 9.917-6.18 0-12.165-1.039-17.961-3.118-5.791-1.889-11.489-5.289-17.091-10.199-1.736-1.51-3.958-3.021-6.661-4.531-2.703-1.321-5.596-1.981-8.689-1.981-4.828 0-8.494 1.229-11.003 3.681-2.514 2.458-3.768 5.857-3.768 10.199v92.627c0 5.098 1.352 8.97 4.055 11.614 2.898 2.833 6.953 4.249 12.165 4.249h95.293c5.212 0 9.17-1.322 11.873-3.966 2.898-2.455 4.347-6.137 4.347-11.047 0-4.721-1.449-8.403-4.347-11.047-2.703-2.644-6.661-3.966-11.873-3.966h-75.31v-63.451h-9.554c5.018 6.61 11.679 11.708 19.983 15.297s17.377 5.382 27.228 5.382c12.938 0 24.136-2.738 33.597-8.215 9.656-5.287 17.091-12.747 22.303-22.376 5.407-9.441 8.11-20.49 8.11-33.142 0-13.030-2.995-24.55-8.98-34.56-5.985-9.82-14.577-17.562-25.779-23.229-11.003-5.473-24.136-8.212-39.388-8.212z" />
<glyph unicode="&#xe923;" glyph-name="lightning" horiz-adv-x="796" d="M620.442 823.111l-136.886-320h199.111c23.108 0 44.442-14.222 53.333-35.556 7.111-23.111 1.781-48-16.003-64l-455.108-398.219c-21.333-16.003-49.778-17.783-71.111-1.781-21.333 14.222-30.222 42.667-19.556 67.556l136.889 320h-197.333c-24.889 0-46.222 14.222-53.333 35.556-8.889 23.111-3.556 48 14.222 64l455.111 398.222c21.333 16 49.778 17.778 71.111 1.778 21.333-14.222 30.225-42.667 19.553-67.556z" />
<glyph unicode="&#xe924;" glyph-name="percent" horiz-adv-x="1117" d="M1009.087 788.728l-817.087-814.542c-22.909-25.46-61.091-25.46-84 0-25.455 22.9-25.455 61.087 0 86.541l814.545 812c22.904 25.455 61.090 25.455 86.541 0 22.91-22.909 22.91-61.091 0-84zM354.909 750.545c0-45.818-25.455-84-61.091-106.909-38.182-22.909-86.546-22.909-122.182 0-38.182 22.91-61.091 61.091-61.091 106.909 0 43.272 22.909 81.455 61.091 104.363 35.636 22.909 84 22.909 122.182 0 35.636-22.909 61.091-61.091 61.091-104.363zM1006.545 98.909c0-45.818-25.451-83.996-61.096-106.906-38.178-22.91-86.541-22.91-122.177 0-38.182 22.91-61.091 61.087-61.091 106.906 0 43.272 22.909 81.455 61.091 104.363 35.636 22.91 84 22.91 122.177 0 35.645-22.909 61.096-61.091 61.096-104.363z" />
<glyph unicode="&#xe925;" glyph-name="speaker" d="M512 448c141.39 0 256 114.618 256 256s-114.61 256-256 256c-141.376 0-256-114.618-256-256s114.624-256 256-256zM613.328 352h-202.656c-191.454 0-346.672-155.204-346.672-346.667 0-38.289 31.046-69.333 69.328-69.333h757.347c38.281 0 69.325 31.044 69.325 69.333 0 191.462-155.204 346.667-346.672 346.667z" />
<glyph unicode="&#xe926;" glyph-name="download" d="M490.75 200.096c6.062-5.408 13.626-8.096 21.25-8.096s15.188 2.688 21.25 8.096l287.998 255.998c13.19 11.718 14.438 31.968 2.688 45.156-11.75 13.25-32.122 14.468-45.184 2.656l-234.752-208.655v632.749c0 17.688-14.312 32-32 32s-32-14.312-32-32v-632.749l-234.75 208.655c-13.126 11.812-33.438 10.594-45.188-2.656-11.75-13.188-10.5-33.438 2.688-45.156l288-255.998zM896 320h-96c-17.67 0-32-14.323-32-32 0-17.67 14.33-32 32-32h96c35.347 0 64-28.653 64-64v-128c0-35.341-28.653-64-64-64h-768c-35.348 0-64 28.659-64 64v128c0 35.347 28.652 64 64 64h96c17.672 0 32 14.33 32 32 0 17.677-14.328 32-32 32h-96c-70.692 0-128-57.306-128-128v-128c0-70.694 57.308-128 128-128h768c70.694 0 128 57.306 128 128v128c0 70.694-57.306 128-128 128zM880 128c0 26.502-21.498 48-48 48s-48-21.498-48-48c0-26.502 21.498-48 48-48s48 21.498 48 48z" />
<glyph unicode="&#xe927;" glyph-name="phone" horiz-adv-x="967" d="M666.67 412.444l199.111-85.333c31.994-12.447 49.778-46.222 42.667-79.997l-42.667-199.111c-7.111-32.006-35.556-56.889-69.336-56.889-12.447 0-23.108 1.775-33.781 1.775-7.111 0-15.997 0-23.108 1.775-414.222 28.444-739.556 373.339-739.556 794.67 0 32 23.111 62.222 55.111 69.333l199.111 42.667c33.778 7.111 67.556-10.667 80-42.667l85.333-199.111c12.444-28.444 5.333-62.222-19.556-81.778l-72.889-60.444c48-81.778 115.556-149.33 197.333-197.333l60.442 72.889c19.558 24.889 53.339 32 81.783 19.556zM794.67 49.778c7.111 0 12.442 3.556 14.222 10.667l42.667 199.111c1.775 7.111-1.781 12.442-7.111 16.003l-199.111 85.333c-7.111 1.775-12.447 0-17.783-3.561l-58.664-72.886c-17.778-21.333-48-26.67-72.889-12.447-90.667 51.558-165.333 126.225-216.889 216.892-14.222 24.889-8.889 55.111 12.444 72.889l72.889 58.667c3.556 5.333 5.333 10.667 3.556 17.778l-85.333 199.111c-3.556 5.333-8.889 8.889-16 7.111l-199.111-42.667c-7.111 0-10.667-7.111-10.667-12.444 0-408.889 330.667-739.556 737.781-739.556z" />
<glyph unicode="&#xe928;" glyph-name="save-floppy-disk" d="M146.286 960h553.143c38.861 0 77.714-16 105.143-43.429l175.996-176c27.429-27.429 43.432-66.286 43.432-105.143v-553.143c0-82.286-66.282-146.286-146.286-146.286h-731.429c-82.286 0-146.286 64-146.286 146.286v731.429c0 80 64 146.286 146.286 146.286zM146.286 740.571v-146.286c0-41.143 32-73.143 73.143-73.143h438.857c38.857 0 73.143 32 73.143 73.143v146.286c0 38.857-34.286 73.143-73.143 73.143h-438.857c-41.143 0-73.143-34.286-73.143-73.143zM512 374.857c-52.571 0-100.571-29.714-128-73.143-25.143-45.714-25.143-102.853 0-146.286 27.429-45.714 75.429-73.143 128-73.143 50.286 0 98.286 27.429 125.714 73.143 25.143 43.432 25.143 100.571 0 146.286-27.429 43.429-75.429 73.143-125.714 73.143z" />
<glyph unicode="&#xe929;" glyph-name="circle-check" d="M692.666 608.666l-248.932-248.932-112.401 112.399c-13.334 13.333-34.934 13.333-48.265 0s-13.333-34.934 0-48.265l136.534-136.533c6.664-6.669 15.398-10.003 24.132-10.003s17.468 3.334 24.132 10.003l273.069 273.067c13.331 13.333 13.331 34.933 0 48.264-13.338 13.331-34.931 13.333-48.269 0zM512 960c-282.771 0-512-229.229-512-512s229.229-512 512-512c282.771 0 512 229.229 512 512s-229.229 512-512 512zM512 4.269c-244.674 0-443.733 199.059-443.733 443.731 0 244.674 199.059 443.733 443.733 443.733 244.672 0 443.731-199.059 443.731-443.733 0-244.672-199.059-443.731-443.731-443.731z" />
<glyph unicode="&#xe92a;" glyph-name="sharp" horiz-adv-x="1103" d="M473.846 908.615c28-6.462 47.385-32.308 40.924-60.308l-32.308-161.538h239.077l36.615 180.923c6.461 28 32.311 47.385 60.306 40.923 28.002-6.462 47.388-32.308 40.928-60.308l-32.311-161.538h155.081c27.995 0 51.688-23.692 51.688-51.692 0-30.154-23.694-51.692-51.688-51.692h-176.616l-60.31-310.154h168.004c27.995 0 51.688-23.692 51.688-51.692 0-30.154-23.694-51.688-51.688-51.688h-189.542l-36.615-183.083c-4.308-27.995-32.308-47.38-60.308-40.921s-45.231 32.311-40.923 60.306l32.308 163.698h-239.077l-36.615-183.083c-4.308-27.995-32.308-47.38-60.308-40.921s-45.231 32.311-40.923 60.306l32.308 163.698h-152.923c-30.154 0-51.692 21.535-51.692 51.688 0 28 21.539 51.692 51.692 51.692h174.461l60.308 310.154h-165.846c-30.154 0-51.692 21.539-51.692 51.692 0 28 21.539 51.692 51.692 51.692h187.385l36.615 180.923c6.461 28 32.308 47.385 60.307 40.923zM460.923 583.385l-60.307-310.154h239.076l60.308 310.154h-239.077z" />
<glyph unicode="&#xe92b;" glyph-name="gear" d="M512 192c-58.742 0-79.654 11.325-79.654 35.939v39.565c-15.901 6.378-30.752 14.534-44.394 24.406l-35.946-19.779c-4.842-2.704-10.454-4.016-16.096-4.016-38.476 0-79.91 92.874-79.91 108.643 0 10.848 6.085 21.341 16.468 27.066l35.814 19.722c-1.147 8.346-1.703 16.438-1.703 24.47s0.556 16.125 1.703 24.47l-35.831 19.75c-10.37 5.702-16.452 16.189-16.452 27.050 0 12.586 39.807 108.662 79.859 108.662 5.68 0 11.344-1.338 16.262-4.109l35.83-19.722c13.642 9.875 28.493 18.032 44.394 24.41v39.564c0 31.573 37.36 35.908 79.645 35.908 41.622 0 79.664-4.083 79.664-35.908v-39.564c15.898-6.378 30.752-14.534 44.394-24.41l35.946 19.782c4.842 2.704 10.461 4.013 16.102 4.013 38.224 0 79.904-92.55 79.904-108.64 0-10.848-6.086-21.341-16.467-27.069l-35.814-19.718c1.146-8.346 1.702-16.438 1.702-24.47s-0.557-16.125-1.702-24.47l35.83-19.75c10.368-5.702 16.451-16.189 16.451-27.053 0-12.589-39.805-108.659-79.872-108.659-5.68 0-11.344 1.334-16.25 4.109l-35.83 19.718c-13.642-9.872-28.496-18.029-44.394-24.406v-39.565c0-24.557-20.8-35.939-79.654-35.939zM391.424 330.79c37.638-30.822 54.848-34.362 74.461-41.005v-61.846c14.787-2.342 30.202-3.725 45.866-3.725s31.578 1.382 47.363 4.57l-0.998 61.002c16.842 5.706 36.87 10.221 74.461 41.005l56.186-30.973c19.686 22.064 35.389 47.974 45.478 76.57l-55.485 30.563c2.877 14.995 5.094 25.434 5.094 39.072 0 10.95-1.43 23.968-5.094 43.059l56.022 30.845c-10.298 27.75-26.118 53.971-47.261 76.723l-54.941-31.408c-37.638 30.822-54.848 34.362-74.461 41.002v61.849c-14.787 2.343-30.202 3.726-45.866 3.726s-31.578-1.383-47.363-4.57l0.998-61.005c-16.842-5.702-36.87-10.218-74.461-41.002l-56.186 30.97c-19.898-22.314-35.717-48.534-45.788-77.472l55.795-29.658c-2.88-14.995-5.094-25.437-5.094-39.072 0-10.954 1.43-23.968 5.094-43.059l-56.024-30.845c10.301-27.754 26.12-53.971 47.263-76.723l54.941 31.408zM512 352.010c-55.482 0-100.614 43.066-100.614 96.006s45.133 96.006 100.614 96.006c55.482 0 100.614-43.066 100.614-96.006s-45.133-96.006-100.614-96.006zM512 512.019c-36.992 0-67.075-28.72-67.075-64.003s30.083-64.003 67.075-64.003c36.992 0 67.075 28.72 67.075 64.003s-30.083 64.003-67.075 64.003z" />
<glyph unicode="&#xe92c;" glyph-name="sparkles" horiz-adv-x="1170" d="M987.429 960c18.286 0 36.571-18.286 36.571-36.571v-109.714h109.714c18.286 0 36.571-18.286 36.571-36.571 0-20.571-18.286-36.571-36.571-36.571h-109.714v-109.714c0-20.571-18.286-36.571-36.571-36.571-20.568 0-36.571 16-36.571 36.571v109.714h-109.714c-20.568 0-36.571 16-36.571 36.571 0 18.286 16.004 36.571 36.571 36.571h109.714v109.714c0 18.286 16.004 36.571 36.571 36.571zM987.429 301.714c18.286 0 36.571-18.286 36.571-36.571v-109.714h109.714c18.286 0 36.571-18.286 36.571-36.571 0-20.568-18.286-36.571-36.571-36.571h-109.714v-109.714c0-20.568-18.286-36.571-36.571-36.571-20.568 0-36.571 16.004-36.571 36.571v109.714h-109.714c-20.568 0-36.571 16.004-36.571 36.571 0 18.286 16.004 36.571 36.571 36.571h109.714v109.714c0 18.286 16.004 36.571 36.571 36.571zM310.857 537.143l-187.429-86.857 187.429-86.857c16-6.857 29.714-20.571 36.571-36.571l86.857-187.432 86.857 187.432c6.857 16 20.571 29.714 36.571 36.571l187.429 86.857-187.429 86.857c-16 6.857-29.714 20.571-36.571 36.571l-86.857 187.429-86.857-187.429c-6.857-16-20.571-29.714-36.571-36.571zM281.143 297.143l-260.571 118.857c-13.714 6.857-20.571 20.571-20.571 34.286s6.857 27.429 20.571 32l260.571 121.143 121.143 260.571c4.571 13.714 18.286 22.857 32 22.857s27.429-9.143 34.286-22.857l118.857-260.571 260.575-118.857c13.707-6.857 22.85-20.571 22.85-34.286s-9.143-27.429-22.85-32l-260.575-121.143-118.857-260.571c-6.857-13.714-20.571-22.857-34.286-22.857s-27.429 9.143-32 22.857l-121.143 260.571z" />
<glyph unicode="&#xe92d;" glyph-name="bookmark-outline" horiz-adv-x="768" d="M0 864c0 52 42 96 96 96h576c52 0 96-44 96-96v-884c0-26.003-20-44-46.003-44-8 0-16 1.997-24 6.003l-313.997 209.997-316-209.997c-8-4.006-16-6.003-24-6.003-26 0-44 17.997-44 44v884zM96 896c-18 0-32-16-32-32v-848l302 201.997c10 6.003 24 6.003 34 0l304-201.997v848c0 16-16 32-32 32h-576z" />
<glyph unicode="&#xe92e;" glyph-name="home" horiz-adv-x="1092" d="M564.8 901.333l507.731-448c13.066-11.2 13.066-29.867 3.734-42.933-11.196-13.067-29.867-13.067-42.933-1.866l-69.065 61.6v-367.733c0-84.002-67.202-149.333-149.333-149.333h-537.6c-84 0-149.333 65.331-149.333 149.333v367.733l-70.933-61.6c-11.2-11.201-31.733-11.201-41.067 1.866-11.2 13.066-11.2 31.733 1.867 42.933l507.733 448c11.2 9.333 28 9.333 39.2 0zM187.733 102.4c0-50.401 39.2-89.6 89.6-89.6h119.467v298.667c0 31.733 26.133 59.733 59.733 59.733h179.2c31.733 0 59.733-28 59.733-59.733v-298.667h119.467c48.531 0 89.6 39.199 89.6 89.6v420l-358.4 315.467-358.4-315.467v-420zM456.533 12.8h179.2v298.667h-179.2v-298.667z" />
<glyph unicode="&#xe92f;" glyph-name="chevron-left" d="M602.858 667.751c3.44-3.141 5.158-7.437 5.158-11.75 0-3.891-1.408-7.781-4.25-10.859l-181.968-197.142 181.968-197.139c6-6.502 5.626-16.64-0.909-22.611-6.499-6-16.592-5.594-22.592 0.893l-192 208c-5.686 6.157-5.686 15.562 0 21.718l192 207.999c6 6.485 16.093 6.891 22.592 0.891z" />
<glyph unicode="&#xe930;" glyph-name="chevron-right" d="M389.165 228.25c-3.437 3.142-5.155 7.437-5.155 11.75 0 3.891 1.405 7.782 4.25 10.861l181.968 197.139-181.968 197.142c-6 6.5-5.626 16.64 0.906 22.609 6.499 6 16.595 5.594 22.595-0.891l192-207.999c5.686-6.157 5.686-15.562 0-21.718l-192-208c-6-6.486-16.096-6.893-22.595-0.893z" />
<glyph unicode="&#xe931;" glyph-name="chevron-down" d="M276.262 554.848c3.141 3.437 7.437 5.155 11.75 5.155 3.891 0 7.781-1.405 10.859-4.25l197.142-181.968 197.139 181.968c6.502 6 16.64 5.626 22.611-0.906 6-6.499 5.594-16.595-0.893-22.595l-208-192c-6.157-5.686-15.562-5.686-21.718 0l-207.999 192c-6.485 6-6.891 16.096-0.891 22.595z" />
<glyph unicode="&#xe932;" glyph-name="chevron-up" d="M715.763 341.155c-3.142-3.437-7.437-5.155-11.75-5.155-3.891 0-7.782 1.408-10.861 4.25l-197.139 181.968-197.141-181.968c-6.5-6-16.64-5.626-22.609 0.906-6 6.502-5.594 16.595 0.891 22.595l207.999 192c6.157 5.686 15.565 5.686 21.718 0l208-192c6.486-6 6.893-16.093 0.893-22.595z" />
<glyph unicode="&#xe933;" glyph-name="lightbulb-on" horiz-adv-x="1268" d="M155.809 928l91.429-60.952c20.953-15.238 26.667-43.81 13.333-64.762-15.238-20.952-43.81-26.666-64.762-11.428l-91.429 60.952c-20.952 13.333-26.666 41.905-11.428 62.857 13.333 20.952 41.905 26.667 62.857 13.333zM1161.523 851.81l-91.429-60.952c-20.953-15.238-49.523-9.524-62.859 11.428-15.233 20.953-9.523 49.524 11.43 64.762l91.429 60.952c20.953 13.333 49.523 7.619 64.766-13.333 13.332-20.953 7.617-49.524-13.336-62.857zM70.095 630.857h121.905c24.762 0 45.714-20.953 45.714-45.714 0-26.667-20.953-45.714-45.714-45.714h-121.905c-26.667 0-45.714 19.047-45.714 45.714 0 24.762 19.048 45.714 45.714 45.714zM1075.81 630.857h121.905c24.761 0 45.714-20.953 45.714-45.714 0-26.667-20.953-45.714-45.714-45.714h-121.905c-26.668 0-45.714 19.047-45.714 45.714 0 24.762 19.046 45.714 45.714 45.714zM247.238 303.236l-91.429-60.952c-20.953-15.233-49.524-9.523-62.857 11.43-15.238 20.953-9.524 49.523 11.428 64.766l91.429 60.952c20.953 13.332 49.524 7.617 64.762-13.336 13.333-20.953 7.619-49.523-13.333-62.859zM1070.095 377.524l91.429-60.952c20.953-13.336 26.668-41.906 13.336-62.859-15.243-20.953-43.813-26.663-64.766-13.332l-91.429 60.952c-20.953 15.238-26.663 43.808-11.43 64.761 13.336 20.953 41.906 26.668 62.859 11.43zM877.714 600.381c0 133.334-110.475 243.81-243.81 243.81-135.236 0-243.81-110.476-243.81-243.81 0-53.333 15.238-100.952 41.905-139.049 7.619-11.425 15.238-22.855 24.762-34.284 24.762-34.284 53.331-74.284 76.191-114.283 19.046-36.191 30.476-74.289 34.284-108.573h-91.428c-5.714 22.86-11.428 43.808-22.857 64.761-19.047 34.284-41.905 66.667-66.666 99.050-9.524 13.332-19.048 26.663-28.572 39.999-38.095 55.237-59.048 119.999-59.048 192.38 0 184.762 148.572 335.238 335.238 335.238 184.764 0 335.238-150.476 335.238-335.238 0-72.381-22.86-137.143-60.952-192.38-9.523-13.336-19.046-26.668-28.57-39.999-22.86-32.383-47.621-64.766-66.667-99.050-11.43-20.953-17.145-41.901-20.953-64.761h-93.335c5.715 34.284 15.238 72.382 34.284 108.573 22.86 39.999 51.429 79.999 76.195 114.283 9.523 11.43 17.14 22.86 24.761 34.284 26.663 38.097 43.808 85.716 43.808 139.049zM542.476 600.381c0-17.143-15.238-30.476-30.476-30.476-17.145 0-30.476 13.333-30.476 30.476 0 83.81 66.667 152.381 152.381 152.381 15.238 0 30.476-15.238 30.476-30.476 0-17.143-15.238-30.476-30.476-30.476-51.429 0-91.429-41.905-91.429-91.429zM786.286 112.762c0-85.714-68.569-152.381-152.381-152.381-85.714 0-152.381 66.667-152.381 152.381v30.476h304.762v-30.476z" />
<glyph unicode="&#xe934;" glyph-name="search-loupe-lens" d="M763.312 219.312l-141.462 141.462c31.19 36.378 50.15 83.549 50.15 135.226 0 114.874-93.126 208-208 208s-208-93.126-208-208c0-114.874 93.126-208 208-208 51.677 0 98.848 18.96 135.226 50.147l141.462-141.459c3.123-3.126 7.219-4.688 11.312-4.688s8.189 1.562 11.312 4.688c6.25 6.25 6.25 16.374 0 22.624zM464 320c-97.046 0-176 78.954-176 176s78.954 176 176 176c97.046 0 176-78.954 176-176s-78.954-176-176-176z" />
<glyph unicode="&#xe935;" glyph-name="arrow-right" horiz-adv-x="1109" d="M1058.662 427.333l-410.662-391.997c-23.334-21.001-58.333-21.001-79.334 2.33s-21 58.334 2.334 79.334l310.331 296.334h-793.331c-32.667 0-56 23.334-56 56 0 30.333 23.333 56 56 56h793.331l-310.331 294c-23.334 21.001-23.334 58.334-2.334 79.334 21.001 23.333 58.334 23.333 79.334 2.333l410.662-392c11.674-11.667 18.671-25.667 18.671-39.666 0-16.334-6.997-30.333-18.671-42z" />
<glyph unicode="&#xe936;" glyph-name="arrow-rotate-left" horiz-adv-x="1103" d="M86.154 497.231c-30.154 0-51.692 21.539-51.692 51.692v310.154c0 28 21.539 51.692 51.692 51.692 28 0 51.692-23.692 51.692-51.692v-174.461l43.077 51.692c88.307 105.538 219.692 174.461 370.461 174.461 264.925 0 482.462-217.539 482.462-482.462 0-267.075-217.537-482.462-482.462-482.462-109.846 0-208.923 34.462-290.77 94.767-21.538 17.235-28 49.538-10.769 73.232s49.538 28.002 73.23 10.768c62.462-47.38 142.154-75.382 228.308-75.382 208.923 0 379.077 168 379.077 379.077 0 208.923-170.154 379.077-379.077 379.077-118.462 0-221.846-53.846-292.923-137.846l-58.154-68.923h196c28 0 51.692-23.692 51.692-51.692 0-30.154-23.692-51.692-51.692-51.692h-310.154z" />
<glyph unicode="&#xe937;" glyph-name="arrow-rotate-right" horiz-adv-x="1103" d="M1016.611 497.231h-310.15c-30.154 0-51.692 21.539-51.692 51.692 0 28 21.539 51.692 51.692 51.692h193.847l-58.155 68.923c-71.077 84-174.461 137.846-290.769 137.846-211.077 0-379.077-170.154-379.077-379.077 0-211.077 168-379.077 379.077-379.077 84 0 163.692 28.002 226.154 75.382 23.695 17.235 55.998 12.926 73.233-10.768 17.227-23.694 12.918-55.997-10.768-73.232-79.696-60.306-180.926-94.767-288.618-94.767-267.077 0-482.462 215.387-482.462 482.462 0 264.923 215.385 482.462 482.462 482.462 148.615 0 282.151-68.923 370.46-174.461l43.079-51.692v174.461c0 28 21.536 51.692 51.688 51.692 28.002 0 51.696-23.692 51.696-51.692v-310.154c0-30.154-23.694-51.692-51.696-51.692z" />
<glyph unicode="&#xe938;" glyph-name="expand" d="M322.462 910.769c28 0 51.692-23.692 51.692-51.692 0-30.154-23.692-51.692-51.692-51.692h-189.538v-189.538c0-30.154-23.692-51.692-51.692-51.692-30.154 0-51.692 21.539-51.692 51.692v241.231c0 28 21.539 51.692 51.692 51.692h241.231zM29.538 238.769c0 28 21.539 51.692 51.692 51.692 28 0 51.692-23.692 51.692-51.692v-189.538h189.538c28 0 51.692-23.694 51.692-51.696 0-30.153-23.692-51.688-51.692-51.688h-241.231c-30.154 0-51.692 21.536-51.692 51.688v241.235zM942.773 910.769c27.995 0 51.688-23.692 51.688-51.692v-241.231c0-30.154-23.694-51.692-51.688-51.692-30.161 0-51.696 21.539-51.696 51.692v189.538h-189.538c-30.154 0-51.692 21.539-51.692 51.692 0 28 21.539 51.692 51.692 51.692h241.235zM891.077 238.769c0 28 21.536 51.692 51.696 51.692 27.995 0 51.688-23.692 51.688-51.692v-241.235c0-30.153-23.694-51.688-51.688-51.688h-241.235c-30.154 0-51.692 21.536-51.692 51.688 0 28.002 21.539 51.696 51.692 51.696h189.538v189.538z" />
<glyph unicode="&#xe939;" glyph-name="forward-step-outline" horiz-adv-x="745" d="M622.545 898.909c0 33.091 25.455 61.091 61.091 61.091 33.091 0 61.091-28 61.091-61.091v-855.273c0-35.64-28-61.091-61.091-61.091-35.636 0-61.091 25.451-61.091 61.091v267.272l-450.545-315.638c-12.727-10.184-28-12.726-43.273-12.726-43.272 0-76.363 33.094-76.363 76.363v822.182c0 43.273 33.091 78.909 76.363 78.909 15.273 0 30.546-5.091 43.273-15.273l450.545-315.637v269.818zM622.545 458.545v22.91l-448 313.091v-649.091l448 313.091z" />
<glyph unicode="&#xe93a;" glyph-name="light-message-text" d="M896 960h-768c-70.5 0-128-57.5-128-128v-576.006c0-70.496 57.5-128 128-128h192v-168c0-19.674 22.050-30.95 38.25-19.245l249.75 187.245h288c70.502 0 128 57.504 128 128v576.006c0 70.5-57.498 128-128 128zM960 255.994c0-35.2-28.8-64-64-64h-288.152c-13.856 0-27.34-4.493-38.422-12.806l-185.426-139.194v120c0 17.677-14.328 32-32 32h-224c-35.2 0-64 28.8-64 64v576.006c0 35.2 28.8 64 64 64h768c35.2 0 64-28.8 64-64v-576.006zM640 704h-256c-17.688 0-32-14.312-32-32s14.312-32 32-32h96v-224c0-17.688 14.312-32 32-32s32 14.312 32 32v224h96c17.69 0 32 14.312 32 32s-14.31 32-32 32z" />
<glyph unicode="&#xe93b;" glyph-name="books" d="M89.6 132.267v-89.6h119.467v89.6h-119.467zM253.867-35.731c-14.933-7.468-29.867-11.203-44.8-11.203h-119.467c-50.4 0-89.6 39.199-89.6 89.6v776.533c0 48.534 39.2 89.6 89.6 89.6h119.467c14.933 0 29.867-5.6 44.8-13.067 13.067 7.467 28 13.067 44.8 13.067h119.467c37.334 0 70.933-24.267 84-59.733 9.333 13.067 22.4 20.533 39.2 24.267l110.133 31.733c46.669 13.067 95.2-14.933 106.402-63.467l44.797-171.733 115.732-446.136 33.601-128.799c11.203-46.667-14.93-95.198-61.597-108.264l-110.135-31.737c-46.667-13.066-95.198 16.8-106.401 63.468l-44.8 171.738-115.733 446.13-5.6 24.267v-617.867c0-50.401-41.066-89.6-89.6-89.6h-119.467c-16.8 0-31.733 3.734-44.8 11.203zM298.667 42.667h119.467v89.6h-119.467v-89.6zM209.067 819.2h-119.467v-89.6h119.467v89.6zM209.067 640h-119.467v-418.133h119.467v418.133zM298.667 729.6h119.467v89.6h-119.467v-89.6zM418.133 221.867v418.133h-119.467v-418.133h119.467zM821.33 244.265l-104.53 401.335-106.4-29.867 104.536-401.335 106.394 29.867zM737.335 128.532l22.398-85.866 106.4 29.867-22.398 84.002-106.4-28.003zM588 703.467l106.402 28-22.402 85.867-104.533-29.867 20.533-84z" />
<glyph unicode="&#xe93c;" glyph-name="solid-sparkless" d="M648.749 753.75l119.251-49.75 49.747-119.25c2.752-5.25 8.25-8.75 14.253-8.75s11.501 3.5 14.253 8.75l49.747 119.25 119.251 49.75c5.248 2.75 8.749 8.25 8.749 14.25s-3.501 11.5-8.749 14.25l-119.251 49.75-49.747 119.25c-2.752 5.25-8.25 8.75-14.253 8.75s-11.501-3.5-14.253-8.75l-49.747-119.25-119.251-49.75c-5.248-2.75-8.749-8.25-8.749-14.25s3.501-11.5 8.749-14.25zM1015.251 142.253l-119.251 49.747-49.747 119.251c-2.752 5.248-8.25 8.749-14.253 8.749s-11.501-3.501-14.253-8.749l-49.747-119.251-119.251-49.747c-5.248-2.752-8.749-8.25-8.749-14.253s3.501-11.501 8.749-14.253l119.251-49.747 49.747-119.251c2.752-5.248 8.25-8.749 14.253-8.749s11.501 3.501 14.253 8.749l49.747 119.251 119.251 49.747c5.248 2.752 8.749 8.25 8.749 14.253s-3.501 11.501-8.749 14.253zM768 448.75c0 12-6.752 23.25-17.747 28.75l-225.003 112.75-112.75 225.5c-10.75 21.75-46.25 21.75-57 0l-112.75-225.5-225-112.75c-11-5.5-17.75-16.75-17.75-28.75 0-12.25 6.75-23.25 17.75-28.75l225-112.749 112.75-225.504c5.25-10.746 16.498-17.747 28.5-17.747 11.998 0 23.25 7.002 28.5 17.747l112.75 225.504 225.003 112.749c10.995 5.5 17.747 16.5 17.747 28.75z" />
<glyph unicode="&#xe93d;" glyph-name="face-frown" d="M415.955 488c13.338 0 24.045 10.688 24.045 24s-10.707 24-24.045 24c-13.248 0-23.955-10.688-23.955-24s10.707-24 23.955-24zM575.955 488c13.338 0 24.045 10.688 24.045 24s-10.707 24-24.045 24c-13.248 0-23.955-10.688-23.955-24s10.707-24 23.955-24zM496 400c-44.442 0-86.218-19.626-114.797-53.75-5.69-6.874-4.845-16.998 1.939-22.499 6.899-5.75 16.95-4.877 22.522 2 22.403 26.749 55.341 42.125 90.214 42.125 34.877 0 67.811-15.376 90.214-42.125 5.328-6.499 15.379-8 22.525-2 6.781 5.626 7.629 15.75 1.936 22.499-28.336 34.125-70.112 53.75-114.554 53.75zM496 704c-132.55 0-240-107.45-240-240s107.45-240 240-240c132.55 0 240 107.45 240 240s-107.45 240-240 240zM496 256c-114.691 0-208 93.309-208 208s93.309 208 208 208c114.691 0 208-93.309 208-208s-93.309-208-208-208z" />
<glyph unicode="&#xe93e;" glyph-name="users-solid" horiz-adv-x="1170" d="M584.885 330.971c104.986 0 190.092 85.146 190.092 190.171 0 105.029-85.107 190.171-190.092 190.171-104.975 0-190.090-85.142-190.090-190.171 0-105.026 85.115-190.171 190.090-190.171zM676.365 272.457h-182.444c-143.51 0-259.864-109.151-259.864-243.807 0-26.931 23.272-48.764 51.972-48.764h598.224c28.701 0 51.975 21.833 51.975 48.764 0 134.656-116.341 243.807-259.863 243.807zM936.229 623.543c80.794 0 146.286 65.496 146.286 146.286s-65.492 146.286-146.286 146.286c-80.786 0-146.286-65.496-146.286-146.286s65.499-146.286 146.286-146.286zM336.285 521.143c0 9.964 1.798 19.436 2.944 29.096-19.937 9.364-41.88 14.789-65.090 14.789h-113.079c-88.945 0-161.061-76.407-161.061-170.664 0-18.851 14.422-34.136 32.21-34.136h364.718c-37.27 43.5-60.643 99.264-60.643 160.914zM234.057 623.543c80.794 0 146.286 65.496 146.286 146.286s-65.492 146.286-146.286 146.286c-80.786 0-146.286-65.496-146.286-146.286s65.499-146.286 146.286-146.286zM1009.225 565.029h-113.079c-23.406 0-45.502-5.554-65.573-15.067 1.126-9.573 2.918-18.951 2.918-28.818 0-61.651-23.376-117.415-60.65-160.914h365.232c17.788 0 32.212 15.285 32.212 34.136 0 94.257-72.112 170.664-161.061 170.664z" />
<glyph unicode="&#xe93f;" glyph-name="face-meh" d="M592.026 384h-192.051c-8.72 0-15.987-7.251-15.987-16s7.267-16 15.987-16h192.051c8.72 0 15.987 7.251 15.987 16s-7.267 16-15.987 16zM415.955 488c13.338 0 24.045 10.688 24.045 24s-10.707 24-24.045 24c-13.248 0-23.955-10.688-23.955-24s10.707-24 23.955-24zM575.955 488c13.338 0 24.045 10.688 24.045 24s-10.707 24-24.045 24c-13.248 0-23.955-10.688-23.955-24s10.707-24 23.955-24zM496 704c-132.55 0-240-107.45-240-240s107.45-240 240-240c132.55 0 240 107.45 240 240s-107.45 240-240 240zM496 256c-114.691 0-208 93.309-208 208s93.309 208 208 208c114.691 0 208-93.309 208-208s-93.309-208-208-208z" />
<glyph unicode="&#xe940;" glyph-name="face-smiling" d="M586.214 394.25c-22.403-26.874-55.341-42.25-90.214-42.25s-67.811 15.376-90.214 42.25c-5.693 6.749-15.744 7.626-22.525 2-6.781-5.75-7.629-15.75-1.936-22.499 28.336-34.125 70.234-53.75 114.675-53.75s86.339 19.626 114.797 53.75c5.693 6.874 4.845 16.998-1.939 22.499-6.899 5.626-16.95 4.749-22.643-2zM575.955 488c13.338 0 24.045 10.688 24.045 24s-10.707 24-24.045 24c-13.248 0-23.955-10.688-23.955-24s10.707-24 23.955-24zM496 704c-132.55 0-240-107.45-240-240s107.45-240 240-240c132.55 0 240 107.45 240 240s-107.45 240-240 240zM496 256c-114.691 0-208 93.309-208 208s93.309 208 208 208c114.691 0 208-93.309 208-208s-93.309-208-208-208zM415.955 488c13.338 0 24.045 10.688 24.045 24s-10.707 24-24.045 24c-13.248 0-23.955-10.688-23.955-24s10.707-24 23.955-24z" />
<glyph unicode="&#xe941;" glyph-name="seal-exclamation" d="M444.2 924.2c37.4 37.4 98.2 37.4 135.8 0l92-92.2h128c52.998 0 96-43 96-96v-128l91.2-91.2c37.402-37.4 37.402-98.2 0-135.8l-91.2-91.201v-129.798c0-52.998-43.002-96-96-96h-129.798l-90.202-90.202c-37.4-37.402-98.2-37.402-135.8 0l-90.401 90.202h-129.8c-53 0-96 43.002-96 96v129.798l-91.2 91.201c-37.4 37.4-37.4 98.2 0 135.8l91.2 91.2v128c0 53 43 96 96 96h128l92.2 92.2zM512 704c-26.6 0-48-21.4-48-48v-224c0-26.6 21.4-48 48-48s48 21.4 48 48v224c0 26.6-21.4 48-48 48zM576 256c0 16.973-6.743 33.254-18.745 45.254s-28.281 18.746-45.255 18.746c-16.974 0-33.252-6.746-45.255-18.746s-18.745-28.282-18.745-45.254c0-16.973 6.743-33.254 18.745-45.254s28.281-18.746 45.255-18.746c16.974 0 33.252 6.746 45.255 18.746s18.745 28.282 18.745 45.254z" />
<glyph unicode="&#xe942;" glyph-name="triangle-alert-exclamation-warning" d="M762.275 286.998l-213.325 364.002c-16.333 28-57.552 28-73.997 0l-213.213-364.002c-16.332-27.888 4.111-62.998 37-62.998h426.536c32.774 0 53.328 34.998 36.998 62.998zM488 536c0 13.251 10.752 24 24 24 13.251 0 24-10.749 24-24v-128c0-13.251-10.749-24-24-24-13.248 0-24 10.749-24 24v128zM512 288c-17.363 0-31.437 14.077-31.437 31.44 0 17.36 14.074 31.437 31.437 31.437 17.366 0 31.437-14.077 31.437-31.437 0-17.363-14.074-31.44-31.437-31.44z" />
<glyph unicode="&#xe943;" glyph-name="badge-check" d="M512 960c73.6 0 137.6-41.4 169.798-102.2 65.798 20.2 140.205 4.2 192.198-47.8 52.006-52 68.006-126.6 47.802-192.2 60.8-32.2 102.202-96.2 102.202-169.8s-41.402-137.6-102.202-169.798c20.205-65.798 4.205-140.205-47.802-192.198-51.994-52.006-126.598-68.006-192.198-47.802-32.198-60.8-96.198-102.202-169.798-102.202s-137.6 41.402-169.8 102.202c-65.8-20.205-140.2-4.205-192.2 47.802-52 51.994-68 126.598-47.8 192.198-60.8 32.198-102.2 96.198-102.2 169.798s41.4 137.6 102.2 169.8c-20.2 65.8-4.2 140.2 47.8 192.2s126.6 68 192.2 47.8c32.2 60.8 96.2 102.2 169.8 102.2zM737.997 542c18.803 18.8 18.803 49.2 0 67.8-18.797 18.6-49.197 18.8-67.795 0l-222.001-222-94 94c-18.8 18.8-49.201 18.8-67.8 0s-18.8-49.2 0-67.8l128-127.997c18.8-18.803 49.2-18.803 67.8 0l255.796 255.997z" />
<glyph unicode="&#xe944;" glyph-name="eye-slash" horiz-adv-x="1229" d="M88 897.6l209.067-162.4c84 63.467 188.533 113.867 317.334 113.867 149.333 0 270.664-69.067 358.4-151.2 87.736-80.267 145.599-177.334 173.602-244.534 5.598-14.933 5.598-31.733 0-46.666-24.269-59.733-74.67-145.601-149.333-220.264l196-154.938c20.528-14.93 24.262-42.933 7.462-61.597-14.93-20.535-42.933-24.269-61.597-7.468l-1105.067 866.135c-20.533 14.933-24.267 42.933-7.467 61.6 14.933 20.534 42.933 24.267 61.6 7.467zM369.867 677.334l85.866-67.2c42.934 37.334 97.067 59.733 158.667 59.733 130.669 0 238.933-108.267 238.933-238.933 0-41.066-9.332-78.4-28.003-110.133l100.803-78.399c65.331 63.465 110.135 136.266 132.533 188.532-24.269 56-74.663 134.4-147.463 201.6-76.534 70.934-175.473 126.934-296.803 126.934-95.2 0-175.466-33.6-244.533-82.133zM752.531 376.8c7.468 16.8 11.203 35.467 11.203 54.133 0 82.133-67.202 149.333-149.333 149.333-1.866 0-3.734 0-3.734 0 1.867-11.2 3.734-20.533 3.734-29.867 0-20.533-5.6-37.334-13.067-54.133l151.198-119.467zM771.202 134.13l78.397-61.597c-69.065-37.335-147.463-59.733-235.199-59.733-151.2 0-272.534 67.202-360.266 149.333s-145.601 179.2-173.6 244.533c-5.6 14.933-5.6 31.734 0 46.666 18.666 42.934 48.533 97.067 91.466 153.067l69.067-56c-33.6-42.934-57.867-85.866-72.8-119.467 26.134-56 74.667-136.266 147.467-203.469 76.533-70.929 175.466-125.065 298.667-125.065 56 0 108.264 11.203 156.802 31.73zM375.467 430.933h-1.866c0 3.734 1.866 9.333 1.866 14.933l104.533-82.134c18.667-39.199 56-69.066 100.8-78.399l104.536-84.001c-22.402-5.598-46.669-9.332-70.936-9.332-132.534 0-238.933 106.4-238.933 238.933z" />
<glyph unicode="&#xe945;" glyph-name="telescope" horiz-adv-x="1092" d="M865.335 475.733l115.732 65.333-149.333 259.467-115.732-67.2 149.333-257.6zM620.8 722.133c-11.2 28-1.866 59.733 24.267 74.667l168.003 97.066c27.996 14.933 65.331 5.6 80.261-22.4l179.2-309.866c16.8-29.867 7.468-65.333-20.528-82.133l-168.004-97.067c-27.996-14.933-63.468-5.6-80.268 22.4l-1.864 1.866-78.397-42.934c0-7.466 1.864-14.933 1.864-24.266 0-37.334-14.937-70.933-37.335-97.066l93.334-227.738c9.332-24.262-1.864-50.394-24.269-59.733-24.262-9.332-50.394 1.871-59.733 24.269l-87.73 216.535c-11.201-3.734-22.4-3.734-35.467-3.734-11.201 0-22.4 0-33.6 3.734l-87.734-216.535c-9.333-22.398-35.467-33.601-59.733-24.269-22.4 9.339-33.6 35.471-24.267 59.733l82.134 201.605-164.267-87.736c-28-16.8-63.467-5.598-80.267 22.398l-1.867 1.871-82.133-48.538c-20.533-11.196-48.534-3.727-61.6 16.8l-46.667 84.002c-13.067 22.398-5.6 48.531 14.933 61.604l84 46.663-7.466 13.067c-16.8 28-7.467 63.467 18.666 80.267l496.534 315.466zM757.064 483.2l-91.464 160.534-468.533-296.8 72.8-126.93 160.534 85.864c-3.734 11.2-3.734 22.4-3.734 35.467 0 82.133 65.333 149.333 149.333 149.333 41.066 0 80.267-18.667 106.4-46.666l74.664 39.199zM576 281.6c31.733 0 59.733 26.133 59.733 59.733 0 31.733-28 59.733-59.733 59.733-33.6 0-59.733-28-59.733-59.733 0-33.6 26.133-59.733 59.733-59.733z" />
<glyph unicode="&#xe946;" glyph-name="send" horiz-adv-x="1170" d="M187.143 906.286l869.998-382c52.005-22 52.005-96 0-118l-869.998-382.002c-67.999-29.996-138 44.003-102 110l126 244.003c8 15.999 24 28 44 30l350 44c6 0 12 6 12 14 0 6-6 12-12 12l-350 44c-20 2-36 14-44 30l-126 244c-36 66 34 140 102 110z" />
<glyph unicode="&#xe947;" glyph-name="shapes" d="M584.207 841.846l-125.538-206.769h249.231l-123.692 206.769zM811.284 635.077c11.075-18.462 11.075-40.615 0-59.077-9.232-18.462-29.538-29.538-49.846-29.538h-354.462c-22.154 0-42.462 11.077-51.692 29.538-11.077 18.462-11.077 40.615 0 59.077l177.231 295.385c11.077 18.462 29.538 29.538 51.692 29.538 20.307 0 38.769-11.077 49.846-29.538l177.231-295.385zM909.131 369.231h-236.308v-236.308h236.308v236.308zM658.053 457.846h265.847c40.613 0 73.846-33.231 73.846-73.846v-265.846c0-42.464-33.233-73.846-73.846-73.846h-265.847c-42.462 0-73.846 31.382-73.846 73.846v265.846c0 40.615 31.384 73.846 73.846 73.846zM436.515 251.077c0 51.692-29.538 99.692-73.846 127.385-46.154 25.846-103.385 25.846-147.692 0-46.154-27.693-73.846-75.693-73.846-127.385 0-53.539 27.692-101.541 73.846-129.229 44.308-25.852 101.538-25.852 147.692 0 44.308 27.687 73.846 75.69 73.846 129.229zM52.514 251.077c0 83.077 44.308 160.615 118.154 203.077 72 42.462 162.462 42.462 236.308 0 72-42.461 118.154-119.999 118.154-203.077 0-84.921-46.154-162.462-118.154-204.926-73.846-42.457-164.308-42.457-236.308 0-73.846 42.464-118.154 120.005-118.154 204.926z" />
<glyph unicode="&#xe948;" glyph-name="pen-to-square" d="M823.2 798.667h-1.871c-16.794 16.8-44.797 16.8-61.597 0l-55.999-54.133 87.736-87.734 54.129 56.001c16.8 16.8 16.8 44.8 0 63.466l-22.398 22.4zM390.133 429.067c-5.6-3.734-9.333-11.201-11.2-18.667l-31.733-108.267 110.133 29.867c7.466 1.866 13.066 5.6 18.667 11.2l252.002 252-85.869 85.866-252-252zM696.265 862.134c52.265 52.266 136.267 52.266 188.532 0l24.269-24.267c52.265-52.267 52.265-136.267 0-188.533l-369.6-369.6c-14.933-14.934-35.467-26.137-57.866-33.598l-186.667-52.272c-14.933-5.598-31.733-1.864-42.933 11.203-13.067 11.203-16.8 28.003-13.067 42.933l54.133 186.668c5.6 22.4 18.667 42.933 33.6 57.866l369.598 369.601zM164.267 789.333h209.067c24.267 0 44.8-20.533 44.8-44.8 0-26.133-20.533-44.8-44.8-44.8h-209.067c-42.934 0-74.667-33.6-74.667-74.667v-507.737c0-42.933 31.733-74.663 74.667-74.663h507.733c41.066 0 74.667 31.73 74.667 74.663v209.070c0 24.267 18.664 44.8 44.803 44.8 24.262 0 44.797-20.533 44.797-44.8v-209.070c0-91.464-74.67-164.263-164.267-164.263h-507.733c-91.466 0-164.267 72.8-164.267 164.263v507.737c0 89.6 72.8 164.267 164.267 164.267z" />
<glyph unicode="&#xe949;" glyph-name="list" horiz-adv-x="987" d="M129.219 775.314c29.79 0 56.076-26.286 56.076-56.076 0-31.543-26.286-56.076-56.076-56.076-31.543 0-56.076 24.533-56.076 56.076 0 29.79 24.533 56.076 56.076 56.076zM325.486 747.276h560.761c14.016 0 28.038-14.019 28.038-28.038 0-15.771-14.021-28.038-28.038-28.038h-560.761c-15.771 0-28.038 12.268-28.038 28.038 0 14.019 12.268 28.038 28.038 28.038zM325.486 466.894h560.761c14.016 0 28.038-14.016 28.038-28.038 0-15.771-14.021-28.038-28.038-28.038h-560.761c-15.771 0-28.038 12.265-28.038 28.038 0 14.021 12.268 28.038 28.038 28.038zM325.486 186.514h560.761c14.016 0 28.038-14.016 28.038-28.038 0-15.771-14.021-28.038-28.038-28.038h-560.761c-15.771 0-28.038 12.265-28.038 28.038 0 14.021 12.268 28.038 28.038 28.038zM185.294 438.857c0-31.545-26.286-56.076-56.076-56.076-31.543 0-56.076 24.533-56.076 56.076 0 29.788 24.533 56.076 56.076 56.076 29.79 0 56.076-26.289 56.076-56.076zM129.219 214.551c29.79 0 56.076-26.289 56.076-56.076 0-31.545-26.286-56.076-56.076-56.076-31.543 0-56.076 24.533-56.076 56.076 0 29.788 24.533 56.076 56.076 56.076z" />
<glyph unicode="&#xe94a;" glyph-name="messages" horiz-adv-x="1241" d="M391.758 401.455h290.909c32.97 0 62.061 27.152 62.061 62.061v372.364c0 32.97-29.091 62.061-62.061 62.061h-558.545c-34.909 0-62.061-29.091-62.061-62.061v-372.364c0-34.909 27.152-62.061 62.061-62.061h62.061c32.97 0 62.061-29.091 62.061-62.061v-31.030l106.667 79.515c11.636 7.758 23.273 13.576 36.848 13.576zM682.667 339.394h-290.909l-157.091-118.303c-9.697-7.758-21.333-7.758-32.97-3.879-9.697 5.818-15.515 15.515-15.515 29.091v93.091h-62.061c-69.818 0-124.121 54.303-124.121 124.121v372.364c0 67.879 54.303 124.121 124.121 124.121h558.545c67.879 0 124.121-56.242 124.121-124.121v-372.364c0-69.818-56.242-124.121-124.121-124.121zM620.606 91.152c-69.818 0-124.121 54.303-124.121 124.121v62.061h62.061v-62.061c0-34.909 27.152-62.061 62.061-62.061h226.909c13.576 0 27.152-5.818 36.848-13.576l108.606-79.515v31.030c0 32.97 27.152 62.061 62.061 62.061h62.061c32.97 0 62.061 27.152 62.061 62.061v372.364c0 32.97-29.091 62.061-62.061 62.061h-248.242v62.061h248.242c67.879 0 124.121-56.242 124.121-124.121v-372.364c0-69.818-56.242-124.121-124.121-124.121h-62.061v-93.091c0-13.576-7.758-23.273-17.455-29.091-11.636-3.879-23.273-3.879-32.97 3.879l-157.091 118.303h-226.909z" />
<glyph unicode="&#xe94b;" glyph-name="plus" d="M288 416h192v-192c0-17.664 14.336-32 32-32s32 14.336 32 32v192h192c17.664 0 32 14.336 32 32s-14.336 32-32 32h-192v192c0 17.664-14.336 32-32 32s-32-14.336-32-32v-192h-192c-17.664 0-32-14.336-32-32s14.336-32 32-32z" />
<glyph unicode="&#xe94c;" glyph-name="trash-outline" horiz-adv-x="805" d="M292.571 530.286v-329.143c0-10.286-8-18.286-18.286-18.286h-36.571c-10.286 0-18.286 8-18.286 18.286v329.143c0 10.286 8 18.286 18.286 18.286h36.571c10.286 0 18.286-8 18.286-18.286zM438.857 530.286v-329.143c0-10.286-8-18.286-18.286-18.286h-36.571c-10.286 0-18.286 8-18.286 18.286v329.143c0 10.286 8 18.286 18.286 18.286h36.571c10.286 0 18.286-8 18.286-18.286zM585.143 530.286v-329.143c0-10.286-8-18.286-18.286-18.286h-36.571c-10.286 0-18.286 8-18.286 18.286v329.143c0 10.286 8 18.286 18.286 18.286h36.571c10.286 0 18.286-8 18.286-18.286zM658.286 116.571v541.714h-512v-541.714c0-27.429 15.429-43.429 18.286-43.429h475.429c2.857 0 18.286 16 18.286 43.429zM274.286 731.428h256l-27.429 66.857c-1.714 2.286-6.857 5.714-9.714 6.286h-181.143c-3.429-0.571-8-4-9.714-6.286zM804.571 713.143v-36.571c0-10.286-8-18.286-18.286-18.286h-54.857v-541.714c0-62.857-41.143-116.571-91.429-116.571h-475.429c-50.286 0-91.429 51.429-91.429 114.286v544h-54.857c-10.286 0-18.286 8-18.286 18.286v36.571c0 10.286 8 18.286 18.286 18.286h176.571l40 95.429c11.429 28 45.714 50.857 76 50.857h182.857c30.286 0 64.571-22.857 76-50.857l40-95.429h176.571c10.286 0 18.286-8 18.286-18.286z" />
<glyph unicode="&#xe94d;" glyph-name="bell" horiz-adv-x="887" d="M443.733 908.8c31.733 0 59.733-28 59.733-59.733v-37.334c136.266-26.133 238.933-147.466 238.933-291.2v-35.467c0-87.734 31.73-173.6 89.6-238.931l13.066-14.937c16.8-18.664 20.535-42.933 11.203-65.331-9.339-20.535-31.737-33.601-54.135-33.601h-716.8c-24.267 0-46.667 13.066-56 33.601-9.333 22.398-5.6 46.667 11.2 65.331l13.067 14.937c57.867 65.331 91.467 151.198 91.467 238.931v35.467c0 143.733 102.667 265.066 238.933 291.2v37.334c0 31.733 26.133 59.733 59.733 59.733zM527.733-13.332c-22.4-22.398-52.267-33.601-84-33.601s-63.467 11.203-85.866 33.601c-22.4 22.398-33.6 54.135-33.6 85.866h238.933c0-31.73-13.067-63.468-35.467-85.866z" />
<glyph unicode="&#xe94e;" glyph-name="bookmark" horiz-adv-x="751" d="M17.067 819.2c0 48.534 39.2 89.6 89.6 89.6h537.6c48.531 0 89.6-41.066 89.6-89.6v-821.337c0-26.132-20.535-44.797-46.667-44.797-9.333 0-18.666 1.864-26.133 7.468l-285.6 201.598-287.467-201.598c-7.466-5.605-16.8-7.468-26.133-7.468-26.133 0-44.8 18.664-44.8 44.797v821.337z" />
<glyph unicode="&#xe94f;" glyph-name="bookmark-slash" horiz-adv-x="1229" d="M88 897.6l168-128.8v50.4c0 48.534 39.2 89.6 89.6 89.6h537.6c48.531 0 89.6-41.066 89.6-89.6v-612.263l220.269-175.473c20.528-14.93 24.262-42.933 7.462-61.597-14.93-20.535-42.933-24.269-61.597-7.468l-1105.067 866.135c-20.533 14.933-24.267 42.933-7.467 61.6 14.933 20.534 42.933 24.267 61.6 7.467zM256-2.137v543.203l711.202-561.867c-5.605-16.8-22.405-26.132-41.069-26.132-9.332 0-18.664 1.864-26.132 7.468l-285.6 201.598-287.467-201.598c-7.466-5.605-16.8-7.468-26.133-7.468-26.133 0-44.8 18.664-44.8 44.797z" />
<glyph unicode="&#xe950;" glyph-name="sorting" horiz-adv-x="1365" d="M85.333 896c0 34.667 26.667 64 64 64h1066.667c34.668 0 64-29.333 64-64 0-37.333-29.332-64-64-64h-1066.667c-37.333 0-64 26.667-64 64zM256 469.333c0 34.667 26.667 64 64 64h725.333c34.667 0 64-29.333 64-64 0-37.333-29.333-64-64-64h-725.333c-37.333 0-64 26.667-64 64zM853.333 42.667c0-37.333-29.333-64-64-64h-213.333c-37.333 0-64 26.667-64 64 0 34.667 26.667 64 64 64h213.333c34.667 0 64-29.333 64-64z" />
<glyph unicode="&#xe951;" glyph-name="filled-circle-check" horiz-adv-x="1073" d="M536.381-39.619c-175.238 0-335.238 91.429-422.857 243.81-87.619 150.474-87.619 335.238 0 487.619 87.619 150.476 247.619 243.81 422.857 243.81 173.334 0 333.332-93.333 420.952-243.81 87.62-152.381 87.62-337.145 0-487.619-87.62-152.381-247.618-243.81-420.952-243.81zM751.621 537.524h-1.907c19.046 17.143 19.046 45.714 0 64.762-17.145 17.143-45.714 17.143-62.859 0l-211.427-213.331-89.524 89.522c-19.047 19.047-47.619 19.047-64.762 0-19.048-17.145-19.048-45.714 0-62.859l121.905-121.905c17.143-19.046 45.712-19.046 64.764 0l243.81 243.811z" />
<glyph unicode="&#xe952;" glyph-name="close-cross-exit-quit-delete" d="M698.842 293.158c-6.88-6.877-18.013-6.877-24.89 0l-145.952 145.952-145.952-145.952c-6.877-6.877-18.010-6.877-24.89 0-6.877 6.88-6.877 18.013 0 24.89l145.952 145.952-145.952 145.952c-6.877 6.877-6.877 18.010 0 24.89 6.88 6.878 18.013 6.878 24.89 0l145.952-145.952 145.952 145.952c6.877 6.878 18.010 6.878 24.89 0 6.877-6.88 6.877-18.013 0-24.89l-145.952-145.952 145.952-145.952c6.877-6.877 6.877-18.010 0-24.89z" />
<glyph unicode="&#xe953;" glyph-name="copy" horiz-adv-x="887" d="M742.4 281.6c14.937 0 29.867 13.067 29.867 29.867v380.8l-126.934 126.934h-261.333c-16.8 0-29.867-14.933-29.867-29.867v-477.867c0-16.8 13.067-29.867 29.867-29.867h358.4zM384 192c-67.2 0-119.467 52.265-119.467 119.467v477.867c0 65.333 52.266 119.467 119.467 119.467h261.333c22.4 0 46.666-11.2 63.466-28l125.065-125.067c16.8-16.8 28.003-41.066 28.003-63.467v-380.8c0-67.202-54.135-119.467-119.467-119.467h-358.4zM145.067 669.867h59.733v-89.6h-59.733c-16.8 0-29.867-14.933-29.867-29.867v-477.867c0-16.8 13.067-29.867 29.867-29.867h358.4c14.933 0 29.867 13.066 29.867 29.867v59.733h89.6v-59.733c0-67.202-54.133-119.467-119.467-119.467h-358.4c-67.2 0-119.467 52.265-119.467 119.467v477.867c0 65.333 52.266 119.467 119.467 119.467z" />
<glyph unicode="&#xe954;" glyph-name="send-outline" horiz-adv-x="1182" d="M365.231 480h538.465l-684.927 292.923 146.462-292.923zM365.231 376.615l-146.462-295.073 684.927 295.073h-538.465zM173.538 904.308l964.922-413.538c25.844-10.769 43.079-36.616 43.079-64.615 0-25.847-17.235-51.692-43.079-62.462l-964.922-413.538c-25.846-10.768-58.154-4.309-77.538 17.227-19.385 19.385-23.692 51.696-10.769 77.54l191.692 383.386-191.692 381.23c-12.923 25.847-8.615 58.154 10.769 79.693 19.384 19.385 51.692 25.846 77.538 15.077z" />
<glyph unicode="&#xe955;" glyph-name="sidebar" horiz-adv-x="1103" d="M482.462 807.385v-758.154h482.462c17.235 0 34.462 15.076 34.462 34.462v689.231c0 17.231-17.227 34.462-34.462 34.462h-482.462zM0 772.923c0 75.385 60.308 137.846 137.846 137.846h827.077c75.382 0 137.846-62.462 137.846-137.846v-689.231c0-77.54-62.464-137.846-137.846-137.846h-827.077c-77.538 0-137.846 60.306-137.846 137.846v689.231zM137.846 721.231c0-30.154 21.539-51.692 51.692-51.692h103.385c28 0 51.692 21.539 51.692 51.692 0 28-23.692 51.692-51.692 51.692h-103.385c-30.154 0-51.692-23.692-51.692-51.692zM189.538 566.154c-30.154 0-51.692-23.692-51.692-51.692 0-30.154 21.539-51.692 51.692-51.692h103.385c28 0 51.692 21.539 51.692 51.692 0 28-23.692 51.692-51.692 51.692h-103.385zM137.846 307.692c0-30.154 21.539-51.692 51.692-51.692h103.385c28 0 51.692 21.539 51.692 51.692 0 28-23.692 51.692-51.692 51.692h-103.385c-30.154 0-51.692-23.692-51.692-51.692z" />
<glyph unicode="&#xe956;" glyph-name="thumbs-down" d="M646 22.287c-76-22.001-156 23.998-178 100.001l-10 40.002c-8 25.995-22 49.993-40 69.996l-102 112c-18 20-16 50 2 68 19.999 18 50 16 67.999-4l104-112c28-30 48-67.999 60-108.001l10-40.002c8-25.995 34-39.995 60-33.997 26 8.002 40 33.997 34 59.999l-12.001 40.002c-12 39.999-30 77.999-54 111.999-10 14-10 34-2 50s24 26 42 26h268c16.004 0 32 14 32 32 0 12-9.999 24-22.001 30-14 3.999-26.002 18-29.996 32-4.001 16 0 32 11.995 44 4.001 6 8.002 12 8.002 22 0 14-12.003 28-26.002 30-18 3.999-32 16-36.001 30-5.998 16-3.994 34 6.005 48 4.001 4 8.002 12 8.002 20 0 12-10.006 24-22.001 30-22.001 8-34.004 32-27.999 56 0 4 1.997 6 1.997 10 0 16-15.996 32-32 32h-196c-26 0-50-8-70-22l-124-82c-22-15.999-52-9.999-66 14-15.999 22-9.999 50 12.001 66l124 82c36 24 80 38 124 38h196c68.001 0 123.999-56 128-124 27.999-24 47.996-60 47.996-100 0-10-1.997-18-3.994-26 32-24 51.997-62 51.997-102 0-14-1.997-26-5.998-38 21.994-24 37.998-56 37.998-90 0-72-58.002-128-128-128h-186c10-22 18-44 24.003-66l11.995-39.999c22.001-76.003-21.998-155.999-99.999-178zM64 210.286c-36 0-64 28-64 64v448c0 34 28 64 64 64h128c34 0 64-30 64-64v-448c0-36-30-64-64-64h-128z" />
<glyph unicode="&#xe957;" glyph-name="thumbs-up" horiz-adv-x="1103" d="M695.692 904.308c84-23.692 131.385-109.846 107.691-191.692l-12.918-43.077c-6.465-23.692-15.080-47.384-25.85-68.923h200.308c75.382 0 137.846-62.462 137.846-137.846 0-38.769-17.235-73.231-40.921-99.077 4.309-12.924 6.459-25.847 6.459-40.923 0-43.077-21.536-84-55.997-109.847 2.15-8.615 4.301-17.23 4.301-27.999 0-43.076-21.536-81.846-51.688-107.69-4.309-73.232-64.614-133.537-137.846-133.537h-211.077c-47.384 0-94.769 15.076-133.538 40.921l-133.538 88.308c-23.692 17.227-30.154 47.38-12.924 73.232 15.077 23.694 47.385 30.151 71.077 12.918l133.538-88.308c21.539-15.076 47.384-23.686 75.385-23.686h211.077c17.235 0 34.462 17.227 34.462 34.462 0 4.301-2.15 6.459-2.15 10.768-6.467 25.844 6.459 51.688 30.153 62.456 12.918 4.309 23.694 17.235 23.694 30.158 0 8.615-4.309 17.231-8.617 21.538-10.768 15.077-12.926 34.462-6.467 51.692 4.309 17.231 19.385 28 38.77 32.308 15.076 2.154 28.002 17.231 28.002 34.462 0 8.616-4.309 15.077-8.617 21.539-12.918 12.923-17.227 30.154-12.918 47.384 4.301 17.231 17.227 30.154 32.303 36.615 12.926 4.308 23.694 17.231 23.694 32.308 0 17.231-17.227 34.462-34.462 34.462h-288.615c-19.385 0-36.616 10.769-45.231 28s-8.616 36.615 2.154 51.692c25.847 36.615 45.231 77.538 58.154 120.615l12.924 43.077c6.461 28-8.616 56-36.616 64.616-28 6.461-56-8.616-64.615-36.616l-10.769-43.077c-12.923-43.077-34.462-81.846-64.615-116.307l-112-120.616c-19.384-21.538-51.692-23.692-73.23-4.307-19.385 19.384-21.539 51.692-2.154 73.23l109.846 120.616c19.385 21.538 34.462 47.384 43.077 75.385l10.769 43.077c23.692 84 109.846 131.385 191.692 107.692zM68.923 566.154h137.846c36.615 0 68.923-32.308 68.923-68.923v-482.462c0-38.77-32.308-68.923-68.923-68.923h-137.846c-38.769 0-68.923 30.153-68.923 68.923v482.462c0 36.615 30.154 68.923 68.923 68.923z" />
<glyph unicode="&#xe958;" glyph-name="user-group" horiz-adv-x="1229" d="M18.933 51.999c11.2 84.002 54.133 158.665 117.6 210.937 57.867 48.531 132.534 78.397 212.8 78.397h169.867c82.133 0 154.933-29.867 212.803-78.397 63.461-52.272 106.394-126.935 117.596-210.937 1.871-14.93 1.871-29.867 1.871-44.797 0-29.867-24.269-54.135-54.135-54.135h-726.134c-29.867 0-54.133 24.269-54.133 54.135 0 14.93 0 29.867 1.867 44.797zM196.267 669.867c0 84 44.8 162.4 119.467 205.333 72.8 42.934 164.267 42.934 238.933 0 72.8-42.933 119.467-121.333 119.467-205.333 0-85.866-46.666-164.267-119.467-207.2-74.667-42.933-166.133-42.933-238.933 0-74.667 42.934-119.467 121.334-119.467 207.2zM584.533 669.867c0 52.266-29.867 100.8-74.667 128.8-46.666 26.133-104.533 26.133-149.333 0-46.666-28-74.667-76.534-74.667-128.8 0-54.133 28-102.667 74.667-130.666 44.8-26.134 102.667-26.134 149.333 0 44.8 28 74.667 76.533 74.667 130.666zM349.334 251.733c-89.6 0-168-48.531-209.067-119.467-16.8-28.003-28-57.87-31.734-89.6h651.466c0 3.734 0 9.332-1.864 14.93-5.605 26.139-14.937 50.401-29.867 74.67-41.069 70.936-119.469 119.467-209.069 119.467h-169.867zM1153.864-46.933h-255.734c9.339 14.937 14.937 33.601 14.937 54.135 0 121.33-55.999 229.594-141.865 302.398 7.462 0 14.93 1.866 24.262 1.866h113.869c166.134 0 302.401-136.267 302.401-302.401 0-31.73-26.132-55.999-57.87-55.999zM823.467 430.933c-57.87 0-110.135 22.4-149.333 59.733 37.335 50.4 59.733 112 59.733 179.2 0 48.534-13.066 97.067-35.465 138.134 35.465 24.267 78.397 41.066 125.065 41.066 113.869 0 209.067-95.2 209.067-209.067 0-115.733-95.198-209.067-209.067-209.067z" />
<glyph unicode="&#xe959;" glyph-name="three-dots" horiz-adv-x="983" d="M491.52 332.8c19.038 0 35.84-11.198 45.92-26.882 10.080-16.798 10.080-38.076 0-53.756-10.080-16.802-26.882-26.882-45.92-26.882-20.161 0-36.958 10.080-47.038 26.882-10.080 15.679-10.080 36.958 0 53.756 10.080 15.684 26.878 26.882 47.038 26.882zM491.52 512c19.038 0 35.84-11.198 45.92-26.882 10.080-16.798 10.080-38.076 0-53.756-10.080-16.802-26.882-26.882-45.92-26.882-20.161 0-36.958 10.080-47.038 26.882-10.080 15.679-10.080 36.958 0 53.756 10.080 15.684 26.878 26.882 47.038 26.882zM545.28 637.44c0-20.16-11.198-36.96-26.882-47.040-16.798-10.080-38.076-10.080-53.756 0-16.802 10.080-26.882 26.88-26.882 47.040 0 19.040 10.080 35.84 26.882 45.92 15.679 10.080 36.958 10.080 53.756 0 15.684-10.080 26.882-26.88 26.882-45.92z" />
<glyph unicode="&#xe95a;" glyph-name="waveform-lines" d="M350.317 708c-14.822 0-26.947-11.7-26.947-26v-468c0-14.301 12.125-26 26.947-26 14.819 0 26.947 11.699 26.947 26v468c0 14.3-12.128 26-26.947 26zM188.632 552c-14.821 0-26.948-11.699-26.948-26v-156c0-14.301 12.126-26 26.948-26s26.947 11.699 26.947 26v156c0 14.301-12.126 26-26.947 26zM26.947 500c-14.821 0-26.947-11.699-26.947-26v-52c0-14.301 12.126-26 26.947-26s26.947 11.699 26.947 26v52c0 14.301-12.126 26-26.947 26zM673.683 656c-14.819 0-26.947-11.7-26.947-26v-364c0-14.301 12.128-26 26.947-26 14.822 0 26.947 11.699 26.947 26v364c0 14.3-12.125 26-26.947 26zM997.053 500c-14.822 0-26.947-11.699-26.947-26v-52c0-14.301 12.125-26 26.947-26s26.947 11.699 26.947 26v52c0 14.301-12.125 26-26.947 26zM835.37 760c-14.822 0-26.947-11.7-26.947-26v-572c0-14.301 12.125-26 26.947-26 14.819 0 26.947 11.699 26.947 26v572c0 14.3-12.128 26-26.947 26zM512 864c-14.822 0-26.947-11.7-26.947-26v-780c0-14.301 12.125-26 26.947-26s26.947 11.699 26.947 26v780c0 14.3-12.125 26-26.947 26z" />
<glyph unicode="&#xe960;" glyph-name="clock-rotate-left" horiz-adv-x="945" d="M88.615 723.077c84.923 118.154 225.231 197.538 384 197.538 260.308 0 472.615-212.307 472.615-472.615 0-262.153-212.307-472.615-472.615-472.615-97.846 0-186.462 27.695-262.153 77.54-20.308 12.918-25.847 40.613-11.077 60.92 12.923 20.307 40.616 25.844 60.923 12.926 60.922-40.621 132.923-62.771 212.307-62.771 210.462 0 384 171.693 384 384 0 210.462-173.538 384-384 384-136.616 0-256.615-72-324.923-177.231h103.385c24 0 44.308-20.307 44.308-44.308 0-25.846-20.307-44.308-44.308-44.308h-206.769c-25.846 0-44.308 18.462-44.308 44.308v206.769c0 24 18.462 44.308 44.308 44.308 24 0 44.308-20.307 44.308-44.308v-94.154zM472.615 684.308h-1.846c25.847 0 44.308-20.307 44.308-44.308v-175.384l120-120c18.462-16.616 18.462-44.308 0-60.923-16.616-18.461-44.308-18.461-60.923 0l-132.923 132.923c-9.23 7.385-12.923 18.462-12.923 31.385v192c0 24 18.462 44.308 44.308 44.308z" />
<glyph unicode="&#xe961;" glyph-name="user-headset" d="M511.683 608h0.637c37.747 0 71.974-22.099 87.43-56.624 15.376-34.627 8.874-75.126-16.499-103.126 0-0.125 0.125-0.125 0.125-0.25h8.624c16.499 0 31.875 8.624 40.499 22.624 4.499 13.002 7.501 26.752 7.501 41.376 0 70.749-57.251 128-128 128s-128-57.251-128-128c0-40.374 19.126-76 48.374-99.501-0.125 1.251-0.374 2.25-0.374 3.501 0.125 11.251 3.126 22.374 8.874 32-25.498 28-32.125 68.499-16.749 103.251 15.456 34.525 49.683 56.749 87.558 56.749zM336 480c8.874 0 16 7.126 16 16v16c0 88.25 71.75 160 160 160s160-71.75 160-160v-16c0-44.125-35.875-80-80-80h-32c0 17.626-14.374 32-32 32h-32c-17.626 0-32-14.374-32-32s14.374-32 32-32h96c61.875 0.125 111.875 50.125 112 112v16c0 105.875-86.125 192-192 192s-192-86.125-192-192v-16c0-8.874 7.126-16 16-16zM602.666 352h-181.331c-73.635 0-133.334-59.696-133.334-133.331 0-14.726 11.941-26.669 26.664-26.669h394.67c14.723 0 26.666 11.942 26.666 26.669 0 73.635-59.693 133.331-133.334 133.331zM320.138 224c2.781 53.408 47.107 96 101.197 96h181.331c54.090 0 98.416-42.592 101.197-96h-383.725z" />
<glyph unicode="&#xe963;" glyph-name="fa-solid-check" d="M998.139 668.060l-564.965-564.966c-17.242-17.24-39.827-25.86-62.416-25.86-22.587 0-45.171 8.62-62.413 25.86l-282.483 282.483c-34.483 34.483-34.483 90.346 0 124.829s90.346 34.483 124.827 0l220.069-220.069 502.553 502.553c34.482 34.482 90.345 34.482 124.827 0 34.485-34.483 34.485-90.346 0.002-124.829z" />
<glyph unicode="&#xe964;" glyph-name="sort-descending" horiz-adv-x="1317" d="M822.857 45.714h-146.284c-20.215 0-36.571-16.355-36.571-36.571s16.356-36.571 36.571-36.571h146.284c20.217 0 36.571 16.355 36.571 36.571s-16.355 36.571-36.571 36.571zM969.143 338.286h-292.57c-20.215 0-36.571-16.357-36.571-36.571s16.356-36.571 36.571-36.571h292.57c20.217 0 36.571 16.357 36.571 36.571s-16.355 36.571-36.571 36.571zM1115.429 630.857h-438.856c-20.215 0-36.571-16.357-36.571-36.571s16.356-36.571 36.571-36.571h438.856c20.217 0 36.571 16.357 36.571 36.571s-16.355 36.571-36.571 36.571zM1261.714 923.429h-585.141c-20.215 0-36.571-16.357-36.571-36.571s16.356-36.571 36.571-36.571h585.141c20.217 0 36.571 16.356 36.571 36.571s-16.355 36.571-36.571 36.571zM493.716 228.571c-9.358 0-18.716-3.569-25.859-10.715l-156.998-157.001v862.574c0 20.215-16.357 36.571-36.571 36.571s-36.571-16.357-36.571-36.571v-862.574l-157.001 157.001c-14.286 14.286-37.429 14.286-51.715 0s-14.286-37.427 0-51.712l219.428-219.429c14.286-14.285 37.431-14.285 51.715 0l219.429 219.429c14.286 14.285 14.286 37.427 0 51.712-7.143 7.146-16.499 10.715-25.856 10.715z" />
<glyph unicode="&#xe965;" glyph-name="sort-alphanumeric-descending" horiz-adv-x="1170" d="M1111.559-10.949l-182.843 365.665c-12.427 24.714-52.999 24.714-65.434 0l-182.841-365.665c-9.035-18.066-1.714-39.995 16.359-49.072 18.071-9.143 40.033-1.638 49.066 16.362l26.463 52.926h247.34l26.463-52.926c7.073-14.073 27.604-27.165 49.072-16.362 18.066 9.077 25.388 31.005 16.355 49.072zM808.901 82.395l87.099 174.194 87.106-174.194h-174.204zM749.722 886.866h216.452l-245.020-306.242c-8.782-10.999-10.459-26-4.389-38.713 6.102-12.643 18.891-20.716 32.957-20.716h292.557c20.217 0 36.564 16.358 36.564 36.571s-16.347 36.565-36.564 36.565h-216.452l245.021 306.249c8.784 10.999 10.459 25.991 4.389 38.706-6.1 12.642-18.885 20.713-32.958 20.713h-292.557c-20.212 0-36.564-16.357-36.564-36.571 0-20.206 16.353-36.562 36.564-36.562zM530.287 228.571c-9.358 0-18.716-3.569-25.859-10.715l-156.998-157.001v862.574c0 20.215-16.357 36.571-36.571 36.571s-36.571-16.357-36.571-36.571v-862.574l-157.001 157.001c-14.286 14.286-37.429 14.286-51.715 0s-14.286-37.427 0-51.712l219.428-219.429c14.286-14.285 37.431-14.285 51.715 0l219.429 219.429c14.286 14.285 14.286 37.427 0 51.712-7.143 7.146-16.499 10.715-25.856 10.715z" />
<glyph unicode="&#xe966;" glyph-name="sort-alphanumeric-ascending" horiz-adv-x="1170" d="M1111.559 574.071l-182.85 365.714c-12.434 24.715-53.007 24.715-65.434 0l-182.85-365.714c-9.038-18.071-1.714-40 16.357-49.070 18.071-9.143 40.036-1.644 49.069 16.356l26.463 52.928h247.355l26.463-52.928c7.073-14.070 27.604-27.161 49.072-16.356 18.066 9.070 25.388 30.999 16.355 49.070zM808.887 667.429l87.106 174.215 87.106-174.215h-174.212zM1042.271 9.143h-216.459l245.036 306.286c8.784 10.999 10.459 26 4.389 38.715-6.107 12.643-18.893 20.713-32.965 20.713h-292.557c-20.218 0-36.575-16.357-36.575-36.571s16.357-36.571 36.575-36.571h216.459l-245.034-306.286c-8.787-11.001-10.465-26.002-4.394-38.715 6.107-12.646 18.896-20.714 32.968-20.714h292.557c20.217 0 36.571 16.355 36.571 36.571s-16.355 36.571-36.571 36.571zM530.287 228.571c-9.358 0-18.716-3.569-25.859-10.715l-156.998-157.001v862.574c0 20.215-16.357 36.571-36.571 36.571s-36.571-16.357-36.571-36.571v-862.574l-157.001 157.001c-14.286 14.286-37.429 14.286-51.715 0s-14.286-37.427 0-51.712l219.428-219.429c14.286-14.285 37.431-14.285 51.715 0l219.429 219.429c14.286 14.285 14.286 37.427 0 51.712-7.143 7.146-16.499 10.715-25.856 10.715z" />
<glyph unicode="&#xe967;" glyph-name="sort-ascending" horiz-adv-x="1317" d="M676.573 557.714h292.57c20.217 0 36.571 16.357 36.571 36.571s-16.355 36.571-36.571 36.571h-292.57c-20.215 0-36.571-16.357-36.571-36.571s16.356-36.571 36.571-36.571zM676.573 265.143h438.856c20.217 0 36.571 16.357 36.571 36.571s-16.355 36.571-36.571 36.571h-438.856c-20.215 0-36.571-16.357-36.571-36.571s16.356-36.571 36.571-36.571zM676.573 850.286h146.284c20.217 0 36.571 16.356 36.571 36.571s-16.355 36.571-36.571 36.571h-146.284c-20.215 0-36.571-16.357-36.571-36.571s16.356-36.571 36.571-36.571zM1261.714 45.714h-585.141c-20.215 0-36.571-16.355-36.571-36.571s16.356-36.571 36.571-36.571h585.141c20.217 0 36.571 16.355 36.571 36.571s-16.355 36.571-36.571 36.571zM493.716 228.571c-9.358 0-18.716-3.569-25.859-10.715l-156.998-157.001v862.574c0 20.215-16.357 36.571-36.571 36.571s-36.571-16.357-36.571-36.571v-862.574l-157.001 157.001c-14.286 14.286-37.429 14.286-51.715 0s-14.286-37.427 0-51.712l219.428-219.429c14.286-14.285 37.431-14.285 51.715 0l219.429 219.429c14.286 14.285 14.286 37.427 0 51.712-7.143 7.146-16.499 10.715-25.856 10.715z" />
<glyph unicode="&#xe968;" glyph-name="solid-circle-info" d="M512 960c-282.775 0-512-229.35-512-512 0-282.833 229.225-512 512-512s512 229.167 512 512c0 282.65-229.224 512-512 512zM512 721.067c37.705 0 68.267-30.562 68.267-68.267 0-37.7-30.562-68.267-68.267-68.267s-68.267 30.566-68.267 68.267c0 37.705 30.562 68.267 68.267 68.267zM597.333 174.933h-170.667c-28.267 0-51.2 22.933-51.2 51.2s22.933 51.2 51.2 51.2h34.133v136.533h-17.067c-28.267 0-51.2 22.933-51.2 51.2s22.933 51.2 51.2 51.2h68.267c28.267 0 51.2-22.933 51.2-51.2v-187.733h34.133c28.267 0 51.2-22.933 51.2-51.2s-22.933-51.2-51.2-51.2z" />
<glyph unicode="&#xe96a;" glyph-name="angles-up-down" d="M759.002 19.373c14.086 18.086 10.957 45.21-4.691 59.674l-250.44 231.462c-14.087 12.656-34.435 12.656-46.957 0l-250.438-231.462c-17.217-14.464-18.783-41.587-6.261-59.674 12.522-19.891 36.001-21.696 53.219-7.232l226.959 209.76 226.961-209.76c15.648-14.464 39.13-12.659 51.648 7.232zM456.914 523.242c12.522-12.658 32.87-12.658 46.957 0l250.44 231.459c15.648 14.466 17.216 41.59 4.691 61.481-12.518 18.083-36 21.7-51.648 5.425l-226.961-209.76-226.959 209.76c-17.218 16.275-40.696 12.658-53.219-5.425-12.522-19.891-10.956-47.015 6.261-61.481l250.438-231.459z" />
<glyph unicode="&#xe96b;" glyph-name="up-right-from-square" d="M656 384c-8.836 0-16-7.164-16-16v-112c0-17.673-14.327-32-32-32h-288c-17.672 0-32 14.327-32 32v288c0 17.674 14.328 32 32 32h112c8.836 0 16 7.164 16 16s-7.164 16-16 16h-112c-35.346 0-64-28.654-64-64v-288c0-35.345 28.654-64 64-64h288c35.349 0 64 28.655 64 64v112c0 8.836-7.164 16-16 16zM736 704h-111.97c-13.001 0-24.593-7.766-29.559-19.766-4.971-12-2.253-25.687 6.938-34.859l44.668-44.674-209.387-209.39c-6.251-6.251-6.251-16.375 0-22.622 3.123-3.127 7.215-4.689 11.311-4.689s8.188 1.562 11.311 4.689l209.387 209.383 44.676-44.681c6.157-6.127 14.281-9.374 22.596-9.374 4.126 0 8.311 0.811 12.279 2.453 12.002 4.983 19.75 16.576 19.75 29.561v111.969c0 17.641-14.345 32-32 32zM736 560.031l-112.124 111.953c0 0 0.060 0.016 0.154 0.016h111.97v-111.969z" />
<glyph unicode="&#xe96c;" glyph-name="forward-step" horiz-adv-x="1109" d="M714.064 393.288l-426.718-355.494c-45.838-38.050-116.68-6.11-116.68 54.716v710.986c0 60.825 70.842 92.76 116.68 54.713l426.718-355.495c16.945-14.306 25.422-34.505 25.422-54.713 0-20.204-8.477-40.413-25.422-54.713zM739.486 448.001v-355.482c0-39.279 31.84-71.117 71.116-71.117 39.271 0 71.105 31.838 71.105 71.117v710.965c0 39.273-31.838 71.111-71.113 71.111-39.271 0-71.107-31.838-71.107-71.107v-355.487z" />
<glyph unicode="&#xe96e;" glyph-name="caret-right" horiz-adv-x="630" d="M39.385 50.436v795.128c0 55.057 66.568 82.629 105.498 43.698l397.564-397.564c24.133-24.133 24.133-63.264 0-87.397l-397.564-397.567c-38.93-38.928-105.498-11.359-105.498 43.701z" />
<glyph unicode="&#xe96f;" glyph-name="caret-left" horiz-adv-x="630" d="M420.782 15.431l-367.59 367.593c-17.949 17.949-26.923 41.463-26.923 64.974 0 23.514 8.974 47.026 26.923 64.974l367.59 367.59c26.294 26.294 65.781 34.148 100.154 19.924s56.719-47.743 56.719-84.899v-735.181c0-37.148-22.346-70.672-56.719-84.897-34.373-14.218-73.86-6.372-100.154 19.921z" />
<glyph unicode="&#xe970;" glyph-name="trash" d="M282.8 924c10 22 32 36 56 36h242.002c23.997 0 45.998-14 55.997-36l16-28h192c34.002 0 64-30 64-64 0-36-29.998-64-64-64h-768c-36 0-64 28-64 64 0 34 28 64 64 64h192l14 28zM76.8 704h768v-640c0-71.997-57.999-128-128-128h-512c-72 0-128 56.003-128 128v640zM268.8 576c-18 0-32-16-32-32v-448c0-18.002 14-32 32-32 16 0 32 13.998 32 32v448c0 16-16 32-32 32zM460.8 576c-18 0-32-16-32-32v-448c0-18.002 14-32 32-32 16 0 32 13.998 32 32v448c0 16-16 32-32 32zM652.8 576c-18.002 0-32-16-32-32v-448c0-18.002 13.998-32 32-32 16 0 32 13.998 32 32v448c0 16-16 32-32 32z" />
<glyph unicode="&#xe971;" glyph-name="arrow-up-right-from-square" d="M672 960h320c16 0 32-16 32-32v-320c0-18-16-32-32-32-17.997 0-32 14-32 32v242l-490-490c-12-12-34-12-46 0s-12 34 0 46l489.997 490h-241.997c-17.997 0-32 14-32 32 0 16 14.003 32 32 32zM128 896h288c16 0 32-16 32-32 0-18-16-32-32-32h-288c-36 0-64-30-64-64v-704c0-36 28-64 64-64h704c33.997 0 64 28 64 64v288c0 16 14.003 32 32 32 16 0 32-16 32-32v-288c0-72-57.997-128-128-128h-704c-72 0-128 56-128 128v704c0 70 56 128 128 128z" />
<glyph unicode="&#xe972;" glyph-name="circle-exclamation" horiz-adv-x="1152" d="M576 896c-162 0-308-86-388-224-82-140-82-310 0-448 80-140 226-224 388-224 160 0 305.997 84 385.997 224 82.003 138 82.003 308 0 448-80 138-225.997 224-385.997 224zM576-64c-184 0-352 96-444 256-92 158-92 352 0 512 92 158 260 256 444 256 182.003 0 350.003-98 441.997-256 92.006-160 92.006-354 0-512-91.994-160-259.994-256-441.997-256zM576 704c16 0 32-16 32-32v-256c0-18-16-32-32-32-18 0-32 14-32 32v256c0 16 14 32 32 32zM624 256c0-28-22-48-48-48-28 0-48 20-48 48 0 25.997 20 48 48 48 26 0 48-22.003 48-48z" />
<glyph unicode="&#xe973;" glyph-name="clone-outline" d="M128 0h448c34 0 64 28 64 64v128h64v-128c0-72-57.997-128-128-128h-448c-72 0-128 56-128 128v448c0 70 56 128 128 128h128v-64h-128c-36 0-64-30-64-64v-448c0-36 28-64 64-64zM448 320h448c33.997 0 64 28 64 64v448c0 34-30.003 64-64 64h-448c-36 0-64-30-64-64v-448c0-36 28-64 64-64zM320 384v448c0 70 56 128 128 128h448c70.003 0 128-58 128-128v-448c0-72-57.997-128-128-128h-448c-72 0-128 56-128 128z" />
<glyph unicode="&#xe974;" glyph-name="calendar" horiz-adv-x="945" d="M339.692 876.308v-73.846h265.846v73.846c0 24 18.462 44.308 44.308 44.308 24 0 44.308-20.308 44.308-44.308v-73.846h73.846c64.614 0 118.154-53.539 118.154-118.154v-590.769c0-66.465-53.539-118.154-118.154-118.154h-590.769c-66.462 0-118.154 51.688-118.154 118.154v590.769c0 64.615 51.692 118.154 118.154 118.154h73.846v73.846c0 24 18.462 44.308 44.308 44.308 24 0 44.308-20.308 44.308-44.308zM147.692 566.154v-472.615c0-16.612 12.923-29.538 29.538-29.538h590.769c14.769 0 29.538 12.926 29.538 29.538v472.615h-649.846z" />
<glyph unicode="&#xe975;" glyph-name="diamond" d="M560 866.286l370.289-370.286c25.71-27.429 25.71-70.286 0-97.714l-370.289-370.286c-27.429-25.717-70.286-25.717-97.714 0l-370.286 370.286c-25.714 27.429-25.714 70.286 0 97.714l370.286 370.286c27.429 25.714 70.286 25.714 97.714 0z" />
<glyph unicode="&#xe976;" glyph-name="diamond-outline" d="M498 858l-398-396c-2-4-4-9.999-4-14 0-6 2-12 4-14l398-397.998c2-2.005 8-4.002 14-4.002 4 0 10 1.997 14 4.002l396.001 397.998c4.002 2 5.999 8 5.999 14 0 4-1.997 10-5.999 14l-396.001 396c-4 4-9.999 6-14 6-6 0-12-2-14-6zM34 530l396 396c20 20 50 34 82 34 30 0 60-14 82-34l396.003-396c19.994-22.001 33.997-52 33.997-82 0-32-14.003-62-33.997-82l-396.003-396.003c-22.001-21.999-52-33.997-82-33.997-32 0-62 11.998-82 33.997l-396 396.003c-22 20-34 50-34 82 0 30 12 60 34 82z" />
<glyph unicode="&#xe977;" glyph-name="folder-open" d="M676.571 64h-548.571c-61.714 0-109.714 47.996-109.714 109.714v548.571c0 60 48 109.714 109.714 109.714h200.572c29.142 0 56.571-12 77.143-32.571l46.286-46.286c20.571-20.572 48-30.858 77.143-30.858h202.285c59.999 0 109.714-49.714 109.714-109.714v-54.857h-82.286v54.857c0 13.714-13.714 27.429-27.429 27.429h-202.285c-51.429 0-99.429 18.857-135.429 54.857l-46.286 46.286c-5.143 5.143-12 8.572-18.857 8.572h-200.572c-15.429 0-27.429-13.714-27.429-27.429v-449.142l116.571 202.285c10.286 17.143 27.429 27.429 48 27.429h685.714c18.856 0 37.712-10.285 46.285-27.429 10.284-17.143 10.284-39.428 0-56.572l-192-329.14c-10.284-15.433-27.429-25.717-46.285-25.717h-82.286z" />
<glyph unicode="&#xe978;" glyph-name="folder-outline" d="M0 768c0 70 56 128 128 128h264c38 0 74-16 102-44l84-84h318c69.999 0 128-58 128-128v-512c0-72.004-58.001-128-128-128h-768c-72 0-128 55.996-128 128v640zM128 800c-18 0-32-16-32-32v-640c0-18 14-32 32-32h768c16 0 32 14 32 32v512c0 16-16 32-32 32h-324c-20 0-41.999 8-55.999 22l-90 92c-10 8-22 14-34 14h-264z" />
<glyph unicode="&#xe979;" glyph-name="layer-group" d="M467.2 897.6c28 13.067 59.733 13.067 87.734 0l408.801-188.533c14.93-7.467 26.132-22.4 26.132-39.2 0-18.667-11.203-33.6-26.132-41.066l-408.801-188.533c-28-13.067-59.733-13.067-87.734 0l-408.8 188.533c-14.933 7.466-24.267 22.4-24.267 41.066 0 16.8 9.333 31.733 24.267 39.2l408.8 188.533zM862.932 516.8l100.803-46.666c14.93-7.467 26.132-22.4 26.132-39.2 0-18.667-11.203-33.6-26.132-41.066l-408.801-188.535c-28-13.066-59.733-13.066-87.734 0l-408.8 188.535c-14.933 7.466-24.267 22.4-24.267 41.066 0 16.8 9.333 31.733 24.267 39.2l100.8 46.666 283.733-130.666c42.934-20.533 93.334-20.533 136.267 0l283.731 130.666zM579.2 147.203l283.731 130.663 100.803-46.668c14.93-7.468 26.132-22.398 26.132-39.199 0-18.664-11.203-33.601-26.132-41.069l-408.801-188.532c-28-13.066-59.733-13.066-87.734 0l-408.8 188.532c-14.933 7.468-24.267 22.405-24.267 41.069 0 16.8 9.333 31.73 24.267 39.199l100.8 46.668 283.733-130.663c42.934-20.535 93.334-20.535 136.267 0z" />
<glyph unicode="&#xe97a;" glyph-name="layer-group-outline" d="M470.934 899.467c13.066 5.6 26.133 9.333 41.066 9.333 13.067 0 28-3.733 39.2-9.333l406.936-182.934c18.664-7.466 31.73-26.133 31.73-48.533 0-20.533-13.066-39.2-31.73-46.667l-406.936-182.933c-13.067-5.601-26.133-7.467-39.2-7.467-14.933 0-28 1.866-41.066 7.467l-406.934 182.933c-18.667 7.467-29.867 26.134-29.867 48.534 0 20.533 11.2 39.2 29.867 46.666l406.934 182.934zM512 849.067c-5.6 0-11.2-1.866-16.8-3.734l-392-175.466 392-177.334c5.6-1.866 11.2-1.866 16.8-1.866s11.2 0 14.933 1.866l391.997 177.334-391.997 175.466c-3.734 1.867-9.333 3.734-14.933 3.734zM64 238.667l85.866 39.199 72.8-31.731-119.467-54.135 392-177.336c5.6-1.864 11.2-1.864 16.8-1.864s11.2 0 14.933 1.864l391.997 177.336-119.467 52.265 72.8 33.602 85.873-39.199c18.664-7.468 31.73-26.132 31.73-48.531 0-20.535-13.066-39.206-31.73-46.667l-406.936-182.934c-13.067-5.605-26.133-7.468-39.2-7.468-14.933 0-28 1.864-41.066 7.468l-406.934 182.934c-18.667 7.462-29.867 26.132-29.867 48.531 0 20.535 11.2 39.199 29.867 46.667zM149.866 516.8l72.8-31.733-119.467-54.133 392-177.336c5.6-1.864 11.2-1.864 16.8-1.864s11.2 0 14.933 1.864l391.997 177.336-119.467 52.266 72.8 33.6 85.873-39.2c18.664-7.466 31.73-26.133 31.73-48.533 0-20.533-13.066-39.2-31.73-46.667l-406.936-182.931c-13.067-5.605-26.133-7.468-39.2-7.468-14.933 0-28 1.864-41.066 7.468l-406.934 182.931c-18.667 7.467-29.867 26.134-29.867 48.534 0 20.533 11.2 39.2 29.867 46.666l85.866 39.2z" />
<glyph unicode="&#xe97b;" glyph-name="pencil-outline" d="M759.114 832l-96.006-97.778 135.111-135.111 97.781 96c15.997 17.778 15.997 44.444 0 60.444l-76.447 76.444c-15.997 16-42.667 16-60.439 0zM622.222 695.111l-417.778-419.553c-14.222-12.447-24.889-30.225-30.222-48.003l-48-165.33 165.333 49.778c17.778 5.33 35.556 14.222 48 28.444l419.558 417.775-136.892 136.889zM860.444 872.889l76.447-76.444c37.33-39.111 37.33-101.333 0-140.444l-556.447-556.444c-21.333-19.558-46.222-35.556-72.889-42.667l-215.111-64c-10.667-1.775-21.333 0-28.444 7.111s-8.889 17.778-7.111 28.444l64 215.108c7.111 26.67 23.111 51.558 42.667 72.892l556.442 556.444c39.117 37.333 101.336 37.333 140.447 0z" />
<glyph unicode="&#xe97c;" glyph-name="play" d="M255.692 895.692l620.308-379.077c30.153-19.384 49.538-53.846 49.538-88.307 0-36.615-19.385-71.077-49.538-88.307l-620.308-379.078c-32.307-19.385-73.23-21.536-105.538-2.15-32.308 17.227-51.692 51.688-51.692 90.459v758.154c0 36.615 19.385 71.077 51.692 88.308 32.308 19.385 73.231 19.385 105.538 0z" />
<glyph unicode="&#xe97d;" glyph-name="play-outline" d="M219.077 835.385c-10.769 6.461-23.692 6.461-34.462 2.154-10.769-6.461-19.384-19.384-19.384-30.154v-758.154c0-12.926 8.615-25.844 19.384-30.153 10.769-6.459 23.692-6.459 34.462 0l620.308 379.076c10.769 6.461 17.231 17.231 17.231 30.154 0 10.769-6.461 21.539-17.231 28l-620.308 379.077zM150.154 895.692c32.308 19.385 73.231 19.385 105.538 0l620.308-379.077c30.153-19.384 49.538-53.846 49.538-88.307 0-36.615-19.385-71.077-49.538-88.307l-620.308-379.078c-32.307-21.536-73.23-21.536-105.538-2.15-32.308 17.227-51.692 51.688-51.692 90.459v758.154c0 36.615 19.385 71.077 51.692 88.308z" />
<glyph unicode="&#xe97e;" glyph-name="link" horiz-adv-x="1229" d="M1099.735 408.534l-210.937-210.936c-106.4-104.53-276.264-104.53-380.798 0-98.933 100.802-104.533 259.469-13.067 365.869l9.333 11.2c16.8 18.667 44.8 20.533 63.467 3.734s20.533-44.8 3.733-63.467l-7.466-9.333c-63.467-70.933-59.733-177.334 7.466-244.535 69.067-69.065 182.935-69.065 253.864 0l210.937 210.934c69.065 70.933 69.065 182.934 0 253.867-67.202 65.333-173.602 69.067-244.531 7.467l-11.203-9.333c-18.664-16.8-46.667-14.933-63.468 3.734s-14.93 46.666 3.734 63.466l11.203 9.333c106.394 93.334 266.929 87.734 367.732-11.2 104.53-104.533 104.53-274.4 0-380.8zM127.2 451.467l212.8 210.933c104.533 104.534 274.4 104.534 378.93 0 100.803-98.933 106.4-259.467 13.073-365.866l-11.203-11.2c-14.937-18.663-44.801-22.398-63.467-5.6-18.667 16.8-20.534 44.8-3.734 63.466l11.2 11.201c61.598 70.933 57.864 177.333-9.333 244.533-69.067 70.933-182.933 70.933-252 0l-212.8-210.934c-69.067-69.066-69.067-182.934 0-253.869 67.2-65.331 173.6-69.065 244.533-7.462l11.2 9.332c18.667 16.8 46.667 14.93 63.467-3.734s14.933-46.667-3.734-63.468l-11.2-9.332c-106.4-93.334-266.934-87.736-367.733 11.203-104.533 104.53-104.533 276.264 0 380.797z" />
</font>
</defs>
</svg>
